<?xml version="1.0" standalone="no"?>
<!DOCTYPE svg PUBLIC "-//W3C//DTD SVG 1.1//EN" "http://www.w3.org/Graphics/SVG/1.1/DTD/svg11.dtd" >
<svg xmlns="http://www.w3.org/2000/svg" xmlns:xlink="http://www.w3.org/1999/xlink" version="1.1">
<metadata>
Created by FontForge 20170731 at Wed Feb 10 17:24:59 2021
 By Aleksey,,,
Copyright (c) 2017 by Emil Bertell. All rights reserved.
</metadata>
<defs>
<font id="Praktika-ExtraBoldExtended" horiz-adv-x="0" >
  <font-face 
    font-family="Praktika ExtraBold Extended"
    font-weight="800"
    font-stretch="expanded"
    units-per-em="2048"
    panose-1="0 0 9 5 0 0 0 0 0 0"
    ascent="1638"
    descent="-410"
    x-height="958"
    cap-height="1382"
    bbox="-2011 -653.667 3480 2460"
    underline-thickness="102"
    underline-position="-307"
    unicode-range="U+0020-25CA"
  />
<missing-glyph horiz-adv-x="966" 
d="M793 1536v-1933h-613v1933h613zM643 1407h-317v-64h125v-71h-127v-64h319v64h-127v71h127v64zM516 1157h-192v-201h319v66h-127v135zM451 1092v-70h-64v70h64zM643 903h-319v-63h127v-72h-127v-63h192v135h127v63zM643 788h-63v-129h-256v-65h319v194zM643 553h-192v-109
h65v43h64v-90h-193v156h-63v-219h319v219zM643 217h-319v-217h319v217zM580 154v-91h-193v91h193zM643 -45h-319v-64h135l-135 -92v-63h319v63h-197l136 92h61v64z" />
    <glyph glyph-name=".notdef" horiz-adv-x="966" 
d="M793 1536v-1933h-613v1933h613zM643 1407h-317v-64h125v-71h-127v-64h319v64h-127v71h127v64zM516 1157h-192v-201h319v66h-127v135zM451 1092v-70h-64v70h64zM643 903h-319v-63h127v-72h-127v-63h192v135h127v63zM643 788h-63v-129h-256v-65h319v194zM643 553h-192v-109
h65v43h64v-90h-193v156h-63v-219h319v219zM643 217h-319v-217h319v217zM580 154v-91h-193v91h193zM643 -45h-319v-64h135l-135 -92v-63h319v63h-197l136 92h61v64z" />
    <glyph glyph-name=".null" 
 />
    <glyph glyph-name="nonmarkingreturn" horiz-adv-x="682" 
 />
    <glyph glyph-name="space" unicode=" " horiz-adv-x="581" 
 />
    <glyph glyph-name="exclam" unicode="!" horiz-adv-x="862" 
d="M248 399v983h354v-983h-354zM428 -37q-118 0 -171.5 45.5t-53.5 134.5q0 85 53 126.5t172 41.5q120 0 175.5 -41.5t55.5 -126.5q0 -180 -231 -180z" />
    <glyph glyph-name="quotedbl" unicode="&#x22;" horiz-adv-x="1216" 
d="M172 1448h354l-34 -621h-285zM666 1448h354l-33 -621h-287z" />
    <glyph glyph-name="numbersign" unicode="#" horiz-adv-x="2080" 
d="M1958 846h-252l-92 -338h274l-67 -287h-285l-59 -221h-326l59 221h-618l-60 -221h-325l59 221h-211l68 287h221l90 338h-241l67 287h252l68 249h327l-67 -249h616l68 249h327l-67 -249h241zM1288 508l90 338h-616l-92 -338h618z" />
    <glyph glyph-name="dollar" unicode="$" horiz-adv-x="1761" 
d="M1677 453q0 -176 -153.5 -272.5t-440.5 -117.5v-169h-356v165q-211 9 -362.5 49.5t-278.5 118.5l147 283q121 -81 281.5 -119.5t400.5 -38.5q408 0 408 103q0 39 -48 59.5t-163 26.5l-471 28q-146 9 -251.5 42t-164.5 85t-85.5 112.5t-26.5 133.5q0 181 147.5 274.5
t466.5 108.5v127h356v-129q324 -24 576 -135l-133 -283q-141 70 -314.5 100.5t-414.5 30.5q-185 0 -256.5 -20.5t-71.5 -65.5t59.5 -69t214.5 -33l324 -19q126 -7 216.5 -21t168.5 -40.5t125.5 -67.5t73.5 -102.5t26 -144.5z" />
    <glyph glyph-name="percent" unicode="%" horiz-adv-x="2568" 
d="M668 717q-108 0 -194.5 16t-158.5 51.5t-111.5 99.5t-39.5 152v64q0 71 26.5 125.5t72 90t111 58t137.5 32t157 9.5q112 0 201.5 -15.5t163.5 -50.5t114.5 -98t40.5 -151v-64q0 -88 -40.5 -152t-114.5 -99.5t-163.5 -51.5t-201.5 -16zM184 0l1698 1382h471l-1675 -1382
h-494zM668 944q58 0 101 4.5t78.5 16t54 32.5t18.5 52v38q0 103 -252 103q-236 0 -236 -103v-38q0 -31 17.5 -52t51 -32t74 -16t93.5 -5zM1884 -37q-108 0 -195 16t-158.5 52t-111 100t-39.5 152v61q0 88 39.5 152t111 99t158.5 51t195 16q112 0 201.5 -16t163.5 -51
t114.5 -99t40.5 -152v-61q0 -88 -40.5 -152t-114.5 -100t-163.5 -52t-201.5 -16zM1884 190q57 0 100 5t79 16t54.5 32t18.5 52v39q0 56 -66.5 78t-185.5 22q-114 0 -175.5 -21.5t-61.5 -78.5v-39q0 -31 17.5 -52t51 -32t74 -16t94.5 -5z" />
    <glyph glyph-name="ampersand" unicode="&#x26;" horiz-adv-x="1822" 
d="M1827 831v-262h-168v-67q0 -152 -53.5 -258t-160.5 -167t-249 -87.5t-336 -26.5q-394 0 -576 100.5t-182 333.5q0 267 263 326q-106 35 -167 113.5t-61 193.5q0 203 176.5 296t515.5 93q267 0 449 -34t360 -132l-120 -286q-142 70 -302.5 100.5t-371.5 30.5
q-179 0 -262.5 -32.5t-83.5 -104.5q0 -64 63 -97t215 -33h1051zM1329 510v59h-553q-177 0 -248 -27t-71 -104q0 -150 381 -147q102 1 174.5 6.5t135.5 19.5t101 38.5t59 63t21 91.5z" />
    <glyph glyph-name="quotesingle" unicode="'" horiz-adv-x="722" 
d="M184 1448h355l-35 -621h-285z" />
    <glyph glyph-name="parenleft" unicode="(" horiz-adv-x="1091" 
d="M1069 -336q-261 0 -450 64t-307 191t-174 309t-56 427v72q0 236 56 411.5t174 298t307 183.5t450 61v-323q-115 0 -207 -18.5t-173 -63t-135 -115.5t-85 -180t-31 -252v-76q0 -150 31 -265.5t85 -191t134.5 -123t173.5 -67.5t207 -20v-322z" />
    <glyph glyph-name="parenright" unicode=")" horiz-adv-x="1091" 
d="M25 -336v322q94 0 173.5 14t151.5 45t126.5 83t94.5 124.5t61 173.5t21 227v76q0 143 -31 252t-84.5 180t-134 115.5t-172.5 63t-206 18.5v323q260 0 448.5 -61t306.5 -183.5t174 -298t56 -411.5v-72q0 -245 -56 -427t-174 -309t-306.5 -191t-448.5 -64z" />
    <glyph glyph-name="asterisk" unicode="*" horiz-adv-x="1204" 
d="M1122 983l-372 -29l268 -258l-264 -190l-158 338l-156 -338l-266 190l270 258l-362 29l84 313l340 -159l-66 348h326l-64 -346l336 157z" />
    <glyph glyph-name="plus" unicode="+" horiz-adv-x="1411" 
d="M1346 770v-250h-500v-373h-281v373h-499v250h499v371h281v-371h500z" />
    <glyph glyph-name="comma" unicode="," horiz-adv-x="610" 
d="M285 356q144 0 232.5 -83t88.5 -259q0 -216 -166 -327t-483 -78l27 213q192 -19 301.5 30.5t109.5 155.5q0 26 -8 47q-41 -71 -164 -71q-78 0 -127 42.5t-49 131.5q0 95 61 146.5t177 51.5z" />
    <glyph glyph-name="hyphen" unicode="-" horiz-adv-x="1263" 
d="M1153 459h-1040v280h1040v-280z" />
    <glyph glyph-name="period" unicode="." horiz-adv-x="632" 
d="M313 -37q-107 0 -166 55t-59 156q0 95 58.5 145t166.5 50q109 0 170.5 -50.5t61.5 -144.5q0 -100 -62 -155.5t-170 -55.5z" />
    <glyph glyph-name="slash" unicode="/" horiz-adv-x="954" 
d="M397 -309h-358l516 1923h360z" />
    <glyph glyph-name="zero" unicode="0" horiz-adv-x="1847" 
d="M922 -37q-412 0 -618 176t-206 518v70q0 341 206 516.5t618 175.5t618.5 -175.5t206.5 -516.5v-70q0 -342 -206.5 -518t-618.5 -176zM922 291q100 0 181 18.5t147.5 59t103.5 113t37 171.5v76q0 81 -24.5 143.5t-67 103.5t-103 67.5t-128 37.5t-146.5 11t-146 -11
t-127 -37.5t-102.5 -67.5t-67 -103.5t-24.5 -143.5v-76q0 -80 24.5 -142.5t67 -103.5t102.5 -67.5t127 -37.5t146 -11z" />
    <glyph glyph-name="one" unicode="1" horiz-adv-x="1009" 
d="M510 1382h283v-1382h-353v1044l-305 -133l-123 263z" />
    <glyph glyph-name="two" unicode="2" horiz-adv-x="1728" 
d="M866 319h795v-319h-1485v307l678 334q179 90 249.5 155.5t70.5 139.5q0 86 -77 124t-235 38q-171 0 -328.5 -57t-257.5 -179l-217 223q129 172 349 253t497 81q149 0 261.5 -22.5t196.5 -73t127.5 -136t43.5 -206.5q0 -201 -122 -338t-396 -256z" />
    <glyph glyph-name="three" unicode="3" horiz-adv-x="1675" 
d="M1333 727q264 -48 264 -293q0 -218 -187.5 -344.5t-555.5 -126.5q-307 0 -496.5 72t-324.5 225l231 246q111 -125 237 -170t353 -45q389 0 389 155q0 74 -72.5 98.5t-261.5 24.5h-368v262h368q151 0 214 33t63 97q0 137 -299 137q-414 0 -594 -248l-230 211
q237 358 836 358q649 0 649 -399q0 -106 -57 -181.5t-158 -111.5z" />
    <glyph glyph-name="four" unicode="4" horiz-adv-x="1697" 
d="M1663 512v-307h-244v-205h-352v205h-1016v282l729 895h469l-723 -870h541v354h352v-354h244z" />
    <glyph glyph-name="five" unicode="5" horiz-adv-x="1650" 
d="M1010 852q283 0 409.5 -98.5t126.5 -307.5q0 -242 -184.5 -362.5t-562.5 -120.5q-270 0 -433 45.5t-303 165.5l173 277q99 -92 218 -129t322 -37q156 0 249 18t130 50t37 83q0 75 -57 102t-189 27h-756v817h1252v-319h-916v-211h484z" />
    <glyph glyph-name="six" unicode="6" horiz-adv-x="1783" 
d="M1032 872q323 0 479 -102t156 -319q0 -113 -38.5 -199t-103.5 -140t-162 -88t-203 -47.5t-236 -13.5q-422 0 -621 172t-199 514v78q0 344 204 518t636 174q254 0 418 -54.5t303 -207.5l-250 -239q-106 174 -471 174q-113 0 -198 -18.5t-151 -59.5t-100 -112.5t-34 -172.5
v-6q146 149 571 149zM920 291q395 0 395 160q0 151 -395 151q-191 0 -298.5 -38t-107.5 -111q0 -67 102.5 -114.5t303.5 -47.5z" />
    <glyph glyph-name="seven" unicode="7" horiz-adv-x="1521" 
d="M18 1382h1438v-282l-727 -1100h-481l745 1063h-975v319z" />
    <glyph glyph-name="eight" unicode="8" horiz-adv-x="1923" 
d="M1518 709q278 -62 278 -334q0 -97 -37.5 -168.5t-104.5 -118t-173 -74.5t-230 -39.5t-288 -11.5q-165 0 -289 11.5t-230.5 39.5t-174 74.5t-105 118t-37.5 168.5q0 267 285 334q-242 68 -242 309q0 113 52 191t157 124t246.5 66t337.5 20q156 0 276.5 -12.5t219.5 -41
t163 -74.5t98.5 -114.5t34.5 -158.5q0 -242 -237 -309zM963 1092q-130 0 -217.5 -9t-136 -27t-68 -41.5t-19.5 -56.5q0 -46 35.5 -73t133 -41.5t272.5 -14.5t272 14.5t131.5 41t34.5 73.5q0 45 -35 73t-133.5 44.5t-269.5 16.5zM963 291q184 0 291.5 17.5t148.5 48.5t41 81
q0 49 -40.5 79t-147.5 46.5t-293 16.5q-187 0 -294.5 -16.5t-148.5 -46.5t-41 -79q0 -50 41.5 -81t149.5 -48.5t293 -17.5z" />
    <glyph glyph-name="nine" unicode="9" horiz-adv-x="1761" 
d="M844 1419q421 0 619 -172.5t198 -517.5v-74q0 -343 -201 -517.5t-618 -174.5q-262 0 -433 54.5t-309 207.5l250 240q106 -174 469 -174q486 0 486 334v30q-148 -151 -574 -151q-323 0 -479 106t-156 334q0 110 38.5 193.5t104.5 136t163.5 86t204 46.5t237.5 13zM844 772
q191 0 298 40.5t107 117.5q0 66 -102 114t-299 48q-397 0 -397 -160t393 -160z" />
    <glyph glyph-name="colon" unicode=":" horiz-adv-x="616" 
d="M313 567q-107 0 -166 54.5t-59 154.5q0 95 58.5 145t166.5 50q109 0 170.5 -50.5t61.5 -144.5q0 -99 -62 -154t-170 -55zM313 -8q-107 0 -166 55t-59 156q0 95 58.5 144.5t166.5 49.5q109 0 170.5 -50t61.5 -144q0 -100 -62 -155.5t-170 -55.5z" />
    <glyph glyph-name="semicolon" unicode=";" horiz-adv-x="610" 
d="M287 584q-107 0 -166.5 54.5t-59.5 154.5q0 94 59 144t167 50q109 0 170 -50t61 -144q0 -99 -61.5 -154t-169.5 -55zM285 332q145 0 233 -82.5t88 -259.5q0 -216 -166.5 -327t-482.5 -77l27 213q192 -19 301.5 31t109.5 156q0 26 -8 45q-43 -72 -164 -72q-78 0 -127 43.5
t-49 132.5q0 95 61 146t177 51z" />
    <glyph glyph-name="less" unicode="&#x3c;" horiz-adv-x="1323" 
d="M1251 862l-817 -223l817 -217l-67 -316l-1102 367v330l1102 373z" />
    <glyph glyph-name="equal" unicode="=" horiz-adv-x="1411" 
d="M66 721v250h1280v-250h-1280zM66 303v250h1280v-250h-1280z" />
    <glyph glyph-name="greater" unicode="&#x3e;" horiz-adv-x="1323" 
d="M139 1176l1102 -373v-330l-1102 -367l-67 316l817 217l-817 223z" />
    <glyph glyph-name="question" unicode="?" horiz-adv-x="1728" 
d="M530 418q-11 95 4 165t46 111.5t86.5 68t112 36.5t134.5 14q146 9 203.5 40t57.5 103t-70.5 107t-241.5 35q-386 0 -598 -228l-201 238q275 311 807 311q162 0 281.5 -22.5t207 -72.5t131.5 -134.5t44 -204.5q0 -193 -107.5 -307t-328.5 -123q-132 -9 -179.5 -36.5
t-44.5 -100.5h-344zM700 -37q-118 0 -171.5 45.5t-53.5 134.5q0 85 53 126.5t172 41.5q120 0 176 -42t56 -126q0 -180 -232 -180z" />
    <glyph glyph-name="at" unicode="@" horiz-adv-x="2340" 
d="M1204 1413q183 0 336.5 -27t282 -86.5t217.5 -149t138.5 -219t49.5 -292.5v-59q0 -106 -25.5 -188t-68 -133.5t-102.5 -84.5t-123.5 -46t-136.5 -13q-191 0 -281 98q-65 -46 -159 -75t-199 -29q-78 0 -145.5 11t-130 37.5t-106 68t-70 106t-26.5 147.5v45q0 101 38.5 175
t105.5 114.5t143.5 59t165.5 18.5q208 0 309 -84v55h264v-342q0 -166 105 -166q128 0 131 205v80q0 234 -188.5 362.5t-524.5 128.5q-360 0 -559 -144.5t-199 -412.5v-69q0 -281 203.5 -427.5t599.5 -146.5q161 0 362 24.5t292 55.5l16 -289q-285 -73 -668 -73
q-204 0 -371.5 28.5t-307.5 93t-235.5 163t-148.5 243t-53 328.5v69q0 176 52.5 317t147 238t229 161.5t294 94t346.5 29.5zM1174 360q144 0 229 70q-6 44 -6 92v66q-75 50 -223 53q-224 3 -224 -129v-16q0 -136 224 -136z" />
    <glyph glyph-name="A" unicode="A" horiz-adv-x="1773" 
d="M1333 0l-86 205h-721l-86 -205h-393l617 1386h440l622 -1386h-393zM643 489h485l-243 588z" />
    <glyph glyph-name="B" unicode="B" horiz-adv-x="1818" 
d="M1434 737q129 -22 205.5 -112t76.5 -219q0 -203 -122.5 -304.5t-338.5 -101.5h-1048v1382h979q206 0 318 -89.5t112 -262.5q0 -103 -48 -179.5t-134 -113.5zM1262 952q0 111 -138 111h-571v-236h565q63 0 103.5 34t40.5 91zM1196 322q166 0 166 137q0 59 -40.5 91
t-113.5 32h-655v-260h643z" />
    <glyph glyph-name="C" unicode="C" horiz-adv-x="1771" 
d="M1729 332q-244 -369 -797 -369q-813 0 -813 694v70q0 692 813 692q126 0 231.5 -15.5t206.5 -52t185 -103.5t147 -163l-266 -225q-101 123 -219 177.5t-285 54.5q-79 0 -145 -11t-124.5 -37.5t-99.5 -67.5t-64.5 -103.5t-23.5 -143.5v-76q0 -80 23.5 -142.5t64.5 -103.5
t99.5 -67.5t124.5 -37.5t145 -11q177 0 301.5 55.5t216.5 196.5z" />
    <glyph glyph-name="D" unicode="D" horiz-adv-x="1892" 
d="M1004 1382q387 0 578.5 -167t191.5 -492v-61q0 -662 -770 -662h-797v1382h797zM1417 659v66q0 180 -103 255t-310 75h-443v-727h443q208 0 310.5 74.5t102.5 256.5z" />
    <glyph glyph-name="E" unicode="E" horiz-adv-x="1662" 
d="M561 322h1008v-322h-1362v1382h1347v-319h-993v-225h776v-279h-776v-237z" />
    <glyph glyph-name="F" unicode="F" horiz-adv-x="1542" 
d="M1473 1055h-912v-277h694v-295h-694v-483h-354v1382h1266v-327z" />
    <glyph glyph-name="G" unicode="G" horiz-adv-x="1830" 
d="M758 776h952v-612q-127 -94 -324 -147.5t-452 -53.5q-815 0 -815 694v70q0 692 813 692q244 0 422 -60.5t336 -203.5l-224 -278q-197 215 -534 215q-79 0 -145 -11t-124.5 -37.5t-99.5 -67.5t-64.5 -103.5t-23.5 -143.5v-76q0 -100 36 -171.5t105 -112.5t159 -59.5
t208 -18.5q261 0 371 69v138h-596v278z" />
    <glyph glyph-name="H" unicode="H" horiz-adv-x="1914" 
d="M1352 1382h356v-1382h-356v549h-791v-549h-354v1382h354v-514h791v514z" />
    <glyph glyph-name="I" unicode="I" horiz-adv-x="768" 
d="M207 0v1382h354v-1382h-354z" />
    <glyph glyph-name="J" unicode="J" horiz-adv-x="1423" 
d="M-33 199l205 272q75 -100 166.5 -140t232.5 -40q64 0 115.5 11.5t97 39.5t75.5 73t47.5 114.5t17.5 160.5v692h356v-688q0 -374 -166.5 -552.5t-542.5 -178.5q-183 0 -331.5 51.5t-272.5 184.5z" />
    <glyph glyph-name="K" unicode="K" horiz-adv-x="1785" 
d="M1747 1380l-625 -546l604 -834h-446l-426 600l-293 -256v-344h-354v1382h354v-622l737 620h449z" />
    <glyph glyph-name="L" unicode="L" horiz-adv-x="1492" 
d="M561 328h862v-328h-1216v1382h354v-1054z" />
    <glyph glyph-name="M" unicode="M" horiz-adv-x="2287" 
d="M1704 1382h377v-1382h-348v793l-457 -707h-270l-453 707v-793h-346v1382h377l557 -862z" />
    <glyph glyph-name="N" unicode="N" horiz-adv-x="1873" 
d="M1319 1382h348v-1382h-356l-758 883v-883h-346v1382h354l758 -880v880z" />
    <glyph glyph-name="O" unicode="O" horiz-adv-x="1925" 
d="M961 -37q-421 0 -631.5 176t-210.5 518v70q0 341 210.5 516.5t631.5 175.5q422 0 633.5 -175.5t211.5 -516.5v-70q0 -342 -211.5 -518t-633.5 -176zM961 291q83 0 153.5 11t133.5 37.5t107 67.5t69.5 103.5t25.5 142.5v76q0 81 -25.5 143.5t-69.5 103.5t-107 67.5
t-133.5 37.5t-153.5 11q-82 0 -151.5 -11t-132.5 -37.5t-107 -67.5t-69.5 -103.5t-25.5 -143.5v-76q0 -99 38.5 -171.5t107.5 -113t153 -59t187 -18.5z" />
    <glyph glyph-name="P" unicode="P" horiz-adv-x="1687" 
d="M1057 1382q135 0 232 -23.5t168.5 -77.5t106.5 -146t35 -224q0 -237 -140 -363t-402 -126h-504v-422h-346v1382h850zM1034 733q211 0 211 178q0 86 -52 119t-159 33h-481v-330h481z" />
    <glyph glyph-name="Q" unicode="Q" horiz-adv-x="1925" 
d="M1806 657q0 -423 -321 -589l233 -125l-151 -244l-463 270q-68 -6 -143 -6q-421 0 -631.5 176t-210.5 518v70q0 341 210.5 516.5t631.5 175.5q422 0 633.5 -175.5t211.5 -516.5v-70zM475 653q0 -99 38.5 -171.5t107.5 -113t153 -59t187 -18.5q83 0 153.5 11t133.5 37.5
t107 67.5t69.5 103.5t25.5 142.5v76q0 81 -25.5 143.5t-69.5 103.5t-107 67.5t-133.5 37.5t-153.5 11q-82 0 -151.5 -11t-132.5 -37.5t-107 -67.5t-69.5 -103.5t-25.5 -143.5v-76z" />
    <glyph glyph-name="R" unicode="R" horiz-adv-x="1734" 
d="M1272 0l-328 422h-391v-422h-346v1382h878q135 0 232.5 -23.5t169.5 -77.5t107.5 -146t35.5 -224q0 -176 -78 -291t-227 -163l365 -457h-418zM553 1063v-330h504q217 0 217 178q0 86 -53.5 119t-163.5 33h-504z" />
    <glyph glyph-name="S" unicode="S" horiz-adv-x="1765" 
d="M932 -37q-300 0 -495 53.5t-345 180.5l166 290q118 -100 276 -152t381 -52q192 0 296 33t104 98q0 54 -45.5 76.5t-165.5 33.5l-447 33q-117 8 -208.5 34t-151 64.5t-98 90t-54.5 108t-16 121.5q0 222 183 333t565 111q215 0 403 -39.5t371 -146.5l-133 -299
q-263 170 -670 170q-140 0 -221.5 -14.5t-111.5 -40t-30 -66.5q0 -53 55.5 -79t202.5 -38l316 -22q156 -10 264 -33.5t188.5 -69.5t119 -120t38.5 -179q0 -124 -52 -217t-150.5 -150t-231.5 -84.5t-303 -27.5z" />
    <glyph glyph-name="T" unicode="T" horiz-adv-x="1564" 
d="M1516 1382v-319h-555v-1063h-357v1063h-557v319h1469z" />
    <glyph glyph-name="U" unicode="U" horiz-adv-x="1759" 
d="M874 -37q-370 0 -553.5 181.5t-183.5 547.5v690h357v-692q0 -113 28 -193t81.5 -124t119 -63t151.5 -19q66 0 121.5 11.5t106.5 40t86.5 72.5t56.5 114t21 161v692h356v-690q0 -366 -186 -547.5t-562 -181.5z" />
    <glyph glyph-name="V" unicode="V" horiz-adv-x="1787" 
d="M1360 1382h403l-680 -1384h-374l-684 1384h403l467 -1011z" />
    <glyph glyph-name="W" unicode="W" horiz-adv-x="2566" 
d="M2103 1382h404l-514 -1384h-371l-342 956l-340 -956h-367l-516 1384h404l301 -938l301 938h434l307 -940z" />
    <glyph glyph-name="X" unicode="X" horiz-adv-x="1792" 
d="M1757 0h-446l-445 496l-411 -496h-420l624 696l-622 686h446l432 -508l420 508h420l-631 -710z" />
    <glyph glyph-name="Y" unicode="Y" horiz-adv-x="1787" 
d="M1759 1382l-682 -899v-483h-356v487l-692 895h420l446 -604l442 604h422z" />
    <glyph glyph-name="Z" unicode="Z" horiz-adv-x="1609" 
d="M678 319h856v-319h-1425v270l847 793h-878v319h1429v-282z" />
    <glyph glyph-name="bracketleft" unicode="[" horiz-adv-x="1138" 
d="M1124 1331h-583v-1384h583v-289h-938v1964h938v-291z" />
    <glyph glyph-name="backslash" unicode="\" horiz-adv-x="954" 
d="M557 -309l-518 1923h358l518 -1923h-358z" />
    <glyph glyph-name="bracketright" unicode="]" horiz-adv-x="1138" 
d="M14 1622h938v-1964h-938v289h582v1384h-582v291z" />
    <glyph glyph-name="asciicircum" unicode="^" horiz-adv-x="1228" 
 />
    <glyph glyph-name="underscore" unicode="_" horiz-adv-x="1390" 
d="M1305 -317h-1217v282h1217v-282z" />
    <glyph glyph-name="a" unicode="a" horiz-adv-x="1374" 
d="M676 995q106 0 189 -11t159.5 -40t126.5 -77.5t79.5 -126t29.5 -181.5v-559h-320v125q-80 -91 -195 -126.5t-276 -35.5q-204 0 -295.5 77t-91.5 230q0 148 96 215.5t311 67.5h410q-18 78 -93.5 112.5t-213.5 34.5q-113 0 -196.5 -24.5t-166.5 -77.5l-129 260
q212 137 576 137zM567 219q263 0 340 111v39h-379q-94 0 -94 -72q0 -78 133 -78z" />
    <glyph glyph-name="b" unicode="b" horiz-adv-x="1671" 
d="M983 995q97 0 179 -14.5t156 -49t125 -89t81 -138.5t30 -192v-63q0 -109 -30 -193.5t-81 -139t-125 -89.5t-156 -49.5t-179 -14.5q-353 0 -491 135v-98h-310v1536h353v-662q139 121 448 121zM1202 465v33q0 202 -303 202q-313 0 -364 -139v-158q25 -81 113 -112t251 -31
q303 0 303 205z" />
    <glyph glyph-name="c" unicode="c" horiz-adv-x="1449" 
d="M1321 150q-101 -106 -245 -146.5t-353 -40.5q-98 0 -183.5 14.5t-164.5 49.5t-135 89.5t-89.5 139.5t-33.5 193v63q0 108 33.5 192t91 138.5t140.5 89t175.5 49t202.5 14.5q183 0 316.5 -37t252.5 -135l-207 -229q-64 60 -150.5 83t-203.5 23q-299 0 -299 -202v-33
q0 -205 307 -205q236 0 367 119z" />
    <glyph glyph-name="d" unicode="d" horiz-adv-x="1691" 
d="M1155 1536h352v-1536h-293l-12 143q-139 -180 -504 -180q-110 0 -197 14.5t-160 49t-121.5 90t-75.5 139t-27 193.5v63q0 91 21.5 164.5t61 125.5t92 90t120 60.5t138.5 32.5t152 10q311 0 453 -123v664zM766 260q318 0 389 121v203q-67 116 -389 116q-297 0 -297 -202
v-33q0 -205 297 -205z" />
    <glyph glyph-name="e" unicode="e" horiz-adv-x="1411" 
d="M1333 526v-104h-862q9 -90 73.5 -126t196.5 -36q146 0 236 19t153 69l193 -225q-105 -86 -244.5 -123t-343.5 -37q-108 0 -195.5 12t-168.5 44t-135 84t-86.5 136t-32.5 195v92q0 469 610 469q84 0 156 -8.5t142.5 -28.5t124.5 -55.5t96 -86t64.5 -124.5t22.5 -166z
M727 700q-118 0 -184.5 -33.5t-73.5 -119.5h512q-7 86 -72.5 119.5t-181.5 33.5z" />
    <glyph glyph-name="f" unicode="f" horiz-adv-x="1157" 
d="M827 1280q-51 0 -89 -11t-71.5 -38.5t-51 -82t-17.5 -134.5v-56h457v-280h-457v-678h-354v678h-144v280h144v86q0 131 28.5 226t76 153t122.5 92t155 46t187 12q295 0 459 -107l-117 -268q-161 82 -328 82z" />
    <glyph glyph-name="g" unicode="g" horiz-adv-x="1472" 
d="M1001 958h332v-854q0 -97 -17 -175t-46 -133.5t-75.5 -96.5t-99 -66.5t-123 -40.5t-140.5 -20.5t-158 -5.5q-197 0 -334.5 40.5t-206.5 114.5l117 252q71 -59 172 -96t209 -37q40 0 69.5 1.5t68.5 7.5t66.5 16.5t57 30t47.5 46.5t29.5 67t11.5 91v23q-141 -111 -403 -111
q-82 0 -150.5 11.5t-135 43t-111.5 82t-73 133t-28 191.5v62q0 105 28.5 186.5t75 132t113 83.5t135.5 45.5t148 12.5q332 0 421 -159v122zM694 293q124 0 201 36t86 111v129q-27 133 -287 133q-264 0 -264 -188v-35q0 -96 72.5 -141t191.5 -45z" />
    <glyph glyph-name="h" unicode="h" horiz-adv-x="1579" 
d="M950 995q71 0 132.5 -11t122 -40.5t103 -76t69 -124.5t26.5 -180v-563h-352v471q0 119 -61.5 166t-166.5 47q-91 0 -168 -29.5t-120 -76.5v-578h-353v1536h326v-684q73 68 187 105.5t255 37.5z" />
    <glyph glyph-name="i" unicode="i" horiz-adv-x="745" 
d="M375 1120q-101 0 -157 48.5t-56 136.5q0 86 55.5 132t157.5 46q100 0 155.5 -46t55.5 -132q0 -88 -55.5 -136.5t-155.5 -48.5zM197 0v958h352v-958h-352z" />
    <glyph glyph-name="j" unicode="j" horiz-adv-x="776" 
d="M389 1120q-101 0 -157 48.5t-56 136.5q0 86 55.5 132t157.5 46q100 0 155.5 -46t55.5 -132q0 -88 -55.5 -136.5t-155.5 -48.5zM-57 -451l-31 293q75 0 128 11.5t95 40.5t63 82.5t21 132.5v849h354v-845q0 -113 -21 -201.5t-62.5 -149.5t-96 -103.5t-128 -66t-150.5 -33.5
t-172 -10z" />
    <glyph glyph-name="k" unicode="k" horiz-adv-x="1456" 
d="M975 0l-248 385l-197 -168v-217h-352v1524h352v-901l406 335h463l-406 -348l416 -610h-434z" />
    <glyph glyph-name="l" unicode="l" horiz-adv-x="718" 
d="M182 0v1536h353v-1536h-353z" />
    <glyph glyph-name="m" unicode="m" horiz-adv-x="2449" 
d="M1821 995q452 0 452 -436v-559h-352v467q0 64 -17.5 108t-50.5 67t-71 32.5t-88 9.5q-88 0 -163.5 -28t-119.5 -72v-25v-559h-352v467q0 64 -17.5 108t-49.5 67t-70 32.5t-88 9.5q-93 0 -168 -29.5t-117 -76.5v-578h-352v958h323v-106q153 143 438 143t392 -174
q68 82 191 128t280 46z" />
    <glyph glyph-name="n" unicode="n" horiz-adv-x="1591" 
d="M963 995q454 0 454 -432v-563h-352v471q0 119 -61 166t-166 47q-92 0 -169 -30t-120 -76v-578h-352v958h323v-106q74 68 188.5 105.5t254.5 37.5z" />
    <glyph glyph-name="o" unicode="o" horiz-adv-x="1533" 
d="M766 -37q-108 0 -200 14.5t-176.5 49.5t-143.5 89.5t-94 139t-35 193.5v63q0 108 35 192.5t94 138.5t143.5 88.5t176.5 49t200 14.5t200.5 -14.5t177 -49t144 -88.5t94.5 -138.5t35 -192.5v-63q0 -109 -35 -193.5t-94.5 -139t-144 -89.5t-177 -49.5t-200.5 -14.5z
M766 260q299 0 299 205v33q0 202 -299 202q-297 0 -297 -202v-33q0 -205 297 -205z" />
    <glyph glyph-name="p" unicode="p" horiz-adv-x="1667" 
d="M979 995q97 0 179 -14.5t156 -49t125 -89t81 -138.5t30 -192v-63q0 -486 -587 -486q-295 0 -433 98v-458h-352v1355h309v-127q69 84 188.5 124t303.5 40zM1198 465v33q0 202 -303 202q-314 0 -365 -139v-158q25 -81 113.5 -112t251.5 -31q303 0 303 205z" />
    <glyph glyph-name="q" unicode="q" horiz-adv-x="1687" 
d="M1214 958h293v-1355h-352v491q-149 -131 -457 -131q-110 0 -197 14.5t-160 49t-121.5 90t-75.5 139t-27 193.5v63q0 91 21.5 164.5t61 125.5t92 90t120 60.5t138.5 32.5t152 10q180 0 302.5 -39.5t197.5 -132.5zM766 260q318 0 389 121v203q-67 116 -389 116
q-297 0 -297 -202v-33q0 -205 297 -205z" />
    <glyph glyph-name="r" unicode="r" horiz-adv-x="1169" 
d="M862 995q181 0 305 -106l-170 -250q-102 66 -206 66q-85 0 -148 -42.5t-94 -121.5v-541h-352v958h325v-131q55 87 145 127.5t195 40.5z" />
    <glyph glyph-name="s" unicode="s" horiz-adv-x="1331" 
d="M645 -37q-364 0 -559 119l70 254q70 -53 204 -86t295 -33q121 0 186.5 18t65.5 64q0 53 -98 59l-297 13q-115 4 -198 27.5t-129.5 63.5t-67.5 88t-21 107q0 178 147.5 258t426.5 80q176 0 309.5 -23.5t245.5 -86.5l-127 -230q-136 84 -416 84q-250 0 -250 -69
q0 -58 127 -68l313 -14q92 -5 158 -20.5t115.5 -47t73.5 -84t24 -127.5q0 -346 -598 -346z" />
    <glyph glyph-name="t" unicode="t" horiz-adv-x="1331" 
d="M1155 340l117 -258q-71 -56 -202 -87.5t-282 -31.5q-70 0 -126.5 5.5t-114 21t-102 41t-83.5 66t-64 95.5t-39.5 131.5t-14.5 170.5v184h-144v280h144v256h352v-256h606v-280h-606v-156q0 -80 17.5 -134.5t51 -82t72 -38.5t90.5 -11q170 0 328 84z" />
    <glyph glyph-name="u" unicode="u" horiz-adv-x="1591" 
d="M1055 958h352v-960h-326v106q-73 -68 -186 -105.5t-252 -37.5q-59 0 -111 8t-105 26t-94.5 51t-74.5 79t-50.5 114.5t-17.5 153.5v565h353v-473q0 -118 60.5 -164.5t166.5 -46.5q90 0 166.5 30t118.5 75v579z" />
    <glyph glyph-name="v" unicode="v" horiz-adv-x="1472" 
d="M1010 958h434l-510 -958h-397l-508 958h434l274 -634z" />
    <glyph glyph-name="w" unicode="w" horiz-adv-x="2197" 
d="M1735 958h434l-430 -958h-434l-213 592l-224 -592h-411l-428 958h434l194 -604l215 604h453l213 -604z" />
    <glyph glyph-name="x" unicode="x" horiz-adv-x="1427" 
d="M1384 0h-434l-235 299l-238 -299h-434l418 485l-395 473h434l217 -296l221 296h434l-403 -473z" />
    <glyph glyph-name="y" unicode="y" horiz-adv-x="1497" 
d="M1042 958h435l-740 -1355h-375l191 356l-533 999h435l280 -634z" />
    <glyph glyph-name="z" unicode="z" horiz-adv-x="1312" 
d="M639 281h582v-281h-1102v270l559 408h-576v280h1098v-276z" />
    <glyph glyph-name="braceleft" unicode="{" horiz-adv-x="1071" 
d="M575 -88q99 0 220.5 17.5t181.5 41.5l57 -258q-215 -78 -479 -78q-85 0 -154 11t-115.5 29t-81.5 43.5t-54.5 51t-31 55.5t-15 53t-3.5 48q0 69 21.5 128.5t56.5 101.5t77 77.5t84 62t77 49.5t56.5 46t21.5 45q0 15 -7 24.5t-29 19.5t-64 14t-112 7.5t-173 -1.5v262
q103 -5 173 -2t112 6.5t64 13.5t29 19.5t7 25.5q0 22 -21.5 45t-56.5 46t-77 49.5t-84 62t-77 77.5t-56.5 101.5t-21.5 128.5q0 25 3.5 48t15 53t31 55.5t54.5 51t81.5 43.5t115.5 29t154 11q258 0 479 -80l-57 -256q-61 24 -182.5 42t-219.5 18q-151 0 -151 -70
q0 -24 30.5 -53t76 -56t98.5 -64t98.5 -75t76 -91t30.5 -110q0 -76 -57 -126t-159 -74q102 -24 159 -75t57 -128q0 -56 -30.5 -109t-76 -90.5t-98.5 -74.5t-98.5 -64t-76 -56.5t-30.5 -53.5q0 -68 151 -68z" />
    <glyph glyph-name="bar" unicode="|" horiz-adv-x="768" 
d="M207 -268v1915h354v-1915h-354z" />
    <glyph glyph-name="braceright" unicode="}" horiz-adv-x="1071" 
d="M590 436q0 -22 21.5 -45t56.5 -46t76.5 -49.5t83.5 -62t77 -77.5t56.5 -101.5t21.5 -128.5q0 -29 -5.5 -56.5t-21 -63t-48 -64t-80.5 -54t-125.5 -39.5t-176.5 -14q-262 0 -477 78l57 258q60 -24 181.5 -41.5t220.5 -17.5q151 0 151 68q0 24 -30.5 53.5t-75.5 56.5
t-98.5 64t-98.5 74.5t-75.5 90.5t-30.5 109q0 77 56.5 128t158.5 75q-102 24 -158.5 74t-56.5 126q0 57 30.5 110t75.5 91t98.5 75t98.5 64t75.5 56t30.5 53q0 70 -151 70q-98 0 -219.5 -18t-182.5 -42l-57 256q221 80 477 80q99 0 176.5 -14t125.5 -39.5t80.5 -54t48 -64
t21 -63t5.5 -56.5q0 -69 -21.5 -128.5t-56.5 -101.5t-77 -77.5t-83.5 -62t-76.5 -49.5t-56.5 -46t-21.5 -45q0 -16 6.5 -25.5t28.5 -19.5t63.5 -13.5t111.5 -6.5t173 2v-262q-103 5 -173 1.5t-111.5 -7.5t-63.5 -14t-28.5 -19.5t-6.5 -24.5z" />
    <glyph glyph-name="exclamdown" unicode="&#xa1;" horiz-adv-x="862" 
d="M428 997q119 0 175 -45t56 -135q0 -83 -55.5 -124.5t-175.5 -41.5q-119 0 -172 41t-53 125q0 90 53 135t172 45zM248 561h354v-958h-354v958z" />
    <glyph glyph-name="cent" unicode="&#xa2;" horiz-adv-x="1466" 
d="M1219 600l161 -248q-127 -121 -395 -155v-197h-356v188q-109 11 -197.5 41t-161 85t-113 145t-40.5 209v65q0 116 38.5 203.5t109.5 142.5t160.5 86.5t203.5 42.5v174h356v-178q236 -26 397 -139l-178 -254q-127 111 -383 111q-78 0 -138.5 -9.5t-110.5 -31.5t-76.5 -63
t-26.5 -99v-35q0 -58 26 -99t76 -63.5t112.5 -32.5t145.5 -10q257 0 390 121z" />
    <glyph glyph-name="sterling" unicode="&#xa3;" horiz-adv-x="1714" 
d="M758 469q0 -88 -62 -150h951v-319h-1563v303q149 0 222 32t73 107q0 51 -27 107h-295v233h181q-23 74 -23 158q0 100 41 185t122.5 151.5t216 104.5t308.5 38q247 0 418.5 -50.5t335.5 -174.5l-217 -270q-72 82 -196 127t-281 45q-176 0 -262.5 -58.5t-86.5 -160.5
q0 -46 17 -95h694v-233h-577q10 -42 10 -80z" />
    <glyph glyph-name="currency" unicode="&#xa4;" horiz-adv-x="1228" 
 />
    <glyph glyph-name="yen" unicode="&#xa5;" horiz-adv-x="1832" 
d="M1839 1382l-559 -577h268v-250h-448v-133h448v-248h-448v-174h-357v174h-448v248h448v133h-448v250h266l-567 577h405l521 -534l514 534h405z" />
    <glyph glyph-name="brokenbar" unicode="&#xa6;" horiz-adv-x="768" 
d="M207 772v875h354v-875h-354zM561 608v-876h-354v876h354z" />
    <glyph glyph-name="section" unicode="&#xa7;" horiz-adv-x="1761" 
d="M1538 299q96 -80 96 -227q0 -222 -169 -333.5t-494 -111.5q-291 0 -493.5 39.5t-389.5 149.5l133 299q263 -170 678 -170q147 0 232.5 14.5t116 39t30.5 62.5q0 47 -57 69t-209 28l-394 20q-94 5 -165.5 15.5t-138 34.5t-109 60.5t-67.5 94.5t-25 135q0 68 34.5 124
t88.5 93q-121 88 -121 264q0 212 180 316t553 104q240 0 432.5 -38.5t378.5 -143.5l-133 -299q-272 166 -678 166q-146 0 -231 -14.5t-115.5 -38.5t-30.5 -62q0 -47 58 -70t214 -32l426 -21q94 -5 165.5 -15.5t138 -34t109.5 -60t68 -93.5t25 -133q0 -74 -39 -133.5
t-98 -97.5zM674 442l518 -36q24 -2 88 -11q55 39 55 94q0 56 -51 83.5t-172 33.5l-549 35q-58 6 -59 6q-51 -36 -51 -88q0 -57 49.5 -83t171.5 -34z" />
    <glyph glyph-name="copyright" unicode="&#xa9;" horiz-adv-x="2023" 
d="M1010 -37q-434 0 -650.5 176t-216.5 518v70q0 341 217 516.5t650 175.5q435 0 652.5 -175.5t217.5 -516.5v-70q0 -342 -217.5 -518t-652.5 -176zM1010 57q128 0 237 17t209.5 58.5t171 105.5t112.5 165t42 230v119q0 130 -42 230.5t-112.5 164t-171 104.5t-209.5 57.5
t-237 16.5q-127 0 -235 -16.5t-208.5 -57.5t-170.5 -104.5t-112 -164t-42 -230.5v-119q0 -129 41.5 -230t112 -165t170.5 -105.5t208.5 -58.5t235.5 -17zM1532 416q-205 -142 -533 -142q-85 0 -160 12t-145 42t-120.5 75.5t-80.5 117.5t-30 163v45q0 92 30 163.5t81 117.5
t124.5 75.5t154 41.5t175.5 12q162 0 277.5 -29.5t224.5 -105.5l-154 -216q-115 95 -325 95q-285 0 -285 -162v-27q0 -164 291 -164q224 -3 342 99z" />
    <glyph glyph-name="guillemotleft" unicode="&#xab;" horiz-adv-x="1732" 
d="M780 967l68 -297l-516 -197l516 -184l-68 -297l-745 352v270zM1673 670l-516 -197l516 -184l-67 -297l-746 352v270l746 353z" />
    <glyph glyph-name="registered" unicode="&#xae;" horiz-adv-x="1765" 
d="M872 1452q376 0 574.5 -148t198.5 -425v-37q0 -274 -198.5 -418.5t-574.5 -144.5q-365 0 -559 144.5t-194 418.5v37q0 277 194 425t559 148zM1546 817v86q0 103 -38 183t-101 130.5t-152 83t-182.5 45.5t-200.5 13q-104 0 -194.5 -13t-176.5 -45.5t-147 -83t-98 -130.5
t-37 -183v-86q0 -100 37 -178t98 -127t147 -81t176.5 -45t194.5 -13q107 0 200.5 13t182.5 45t152 81t101 127t38 178zM1296 973q0 -185 -163 -234l194 -229h-235l-174 213h-209v-213h-197v711h487q151 0 224 -53t73 -179v-16zM709 1036v-133h295q90 0 90 68v6q0 33 -22 46
t-68 13h-295z" />
    <glyph glyph-name="degree" unicode="&#xb0;" horiz-adv-x="1226" 
d="M612 631q-84 0 -156 11t-137.5 38t-112 68.5t-73.5 106t-27 146.5v50q0 102 40.5 176t113 114.5t159.5 59t193 18.5t193 -18.5t159.5 -59t113 -114.5t40.5 -176v-50q0 -82 -27 -146.5t-73.5 -106t-112 -68.5t-137.5 -38t-156 -11zM612 866q63 -1 111.5 11.5t82.5 47
t34 89.5v24q0 146 -228 146q-225 0 -225 -146v-24q0 -55 33.5 -89t81 -46.5t110.5 -12.5z" />
    <glyph glyph-name="plusminus" unicode="&#xb1;" horiz-adv-x="1228" 
 />
    <glyph glyph-name="paragraph" unicode="&#xb6;" horiz-adv-x="1667" 
d="M666 1382h796v-1642h-346v745h-450q-253 0 -388 113.5t-135 337.5q0 126 34.5 213t103.5 138t162.5 73t222.5 22z" />
    <glyph glyph-name="periodcentered" unicode="&#xb7;" horiz-adv-x="616" 
d="M313 489q-107 0 -166 55.5t-59 155.5q0 95 58.5 145t166.5 50q109 0 170.5 -50.5t61.5 -144.5q0 -99 -62 -155t-170 -56z" />
    <glyph glyph-name="guillemotright" unicode="&#xbb;" horiz-adv-x="1732" 
d="M59 670l68 297l745 -353v-270l-745 -352l-68 297l516 184zM952 967l746 -353v-270l-746 -352l-67 297l516 184l-516 197z" />
    <glyph glyph-name="questiondown" unicode="&#xbf;" horiz-adv-x="1646" 
d="M936 993q118 0 171.5 -45.5t53.5 -134.5q0 -85 -53 -126.5t-172 -41.5q-120 0 -177 42t-57 126q0 180 234 180zM1104 551q3 -49 5 -90.5t-7 -75.5t-18.5 -61.5t-29 -50t-38 -39t-46 -29t-53.5 -21.5t-60 -15t-65 -9.5t-69 -5.5q-144 -9 -202 -39t-58 -92
q0 -71 69.5 -103.5t241.5 -32.5q387 0 596 228l201 -238q-272 -311 -805 -311q-331 0 -498.5 100t-167.5 334q0 183 108.5 294t328.5 120q133 8 180.5 35t44.5 102h342z" />
    <glyph glyph-name="Agrave" unicode="&#xc0;" horiz-adv-x="1773" 
d="M1075 1614l-117 -141l-483 299l172 243zM1333 0l-86 205h-723l-84 -205h-393l617 1386h440l622 -1386h-393zM641 489h487l-243 588z" />
    <glyph glyph-name="Aacute" unicode="&#xc1;" horiz-adv-x="1773" 
d="M1311 1772l-484 -299l-116 141l426 401zM1333 0l-86 205h-723l-84 -205h-393l617 1386h440l622 -1386h-393zM641 489h487l-243 588z" />
    <glyph glyph-name="Acircumflex" unicode="&#xc2;" horiz-adv-x="1773" 
d="M889 1720l-367 -247l-116 141l389 401h186l389 -401l-115 -141zM1333 0l-86 205h-723l-84 -205h-393l617 1386h440l622 -1386h-393zM641 489h487l-243 588z" />
    <glyph glyph-name="Atilde" unicode="&#xc3;" horiz-adv-x="1773" 
d="M395 1499q-7 114 12.5 200t60.5 135t92.5 73t113.5 24q27 0 49.5 -3t47.5 -13.5t36.5 -15.5t44 -24t41.5 -24q12 -8 33.5 -23t31.5 -21t24.5 -11.5t27.5 -5.5q30 0 43 38t4 99h280q11 -215 -74 -324.5t-214 -109.5q-14 0 -27 1t-26.5 4t-22.5 4.5t-22 7.5t-19 8
t-20.5 10.5t-18 10.5t-20 12t-19.5 12q-7 4 -24 16t-22.5 15.5t-18.5 11t-20 9.5t-17.5 4.5t-20.5 2.5q-68 0 -55 -123h-281zM1333 0l-86 205h-721l-86 -205h-393l617 1386h440l622 -1386h-393zM643 489h485l-243 588z" />
    <glyph glyph-name="Adieresis" unicode="&#xc4;" horiz-adv-x="1773" 
d="M610 1516q-100 0 -153.5 53t-53.5 153q0 95 53.5 145t153.5 50q98 0 153.5 -50.5t55.5 -144.5q0 -99 -55.5 -152.5t-153.5 -53.5zM1165 1516q-98 0 -151 53t-53 153q0 95 52.5 145t151.5 50t155 -50.5t56 -144.5q0 -99 -56 -152.5t-155 -53.5zM1333 0l-86 205h-723
l-84 -205h-393l617 1386h440l622 -1386h-393zM641 489h487l-243 588z" />
    <glyph glyph-name="Aring" unicode="&#xc5;" horiz-adv-x="1773" 
d="M887 1464q-467 0 -467 291v14q0 289 467 289q459 0 459 -289v-14q0 -291 -459 -291zM678 1765v-8q0 -78 209 -78q203 0 203 78v8q0 38 -45.5 58t-157.5 20q-209 0 -209 -78zM1333 0l-86 205h-723l-84 -205h-393l617 1386h440l622 -1386h-393zM641 489h487l-243 588z" />
    <glyph glyph-name="AE" unicode="&#xc6;" horiz-adv-x="2400" 
d="M1450 322h854v-322h-1204l-10 332h-564l-180 -332h-393l784 1382h1555v-319h-871l9 -225h645v-279h-633zM680 616h401l-14 469h-131z" />
    <glyph glyph-name="Ccedilla" unicode="&#xc7;" horiz-adv-x="1771" 
d="M932 -37h-4l-8 -29q154 2 227.5 -42t73.5 -142q0 -56 -25 -95t-71.5 -59t-100 -28t-123.5 -8q-91 0 -157 10.5t-87 19.5l35 156q72 -25 166 -25q123 0 123 39q0 42 -240 37l29 174q-651 63 -651 686v70q0 692 813 692q126 0 231.5 -15.5t206.5 -52t185 -103.5t147 -163
l-266 -225q-101 123 -219 177.5t-285 54.5q-79 0 -145 -11t-124.5 -37.5t-99.5 -67.5t-64.5 -103.5t-23.5 -143.5v-76q0 -80 23.5 -142.5t64.5 -103.5t99.5 -67.5t124.5 -37.5t145 -11q177 0 301.5 55.5t216.5 196.5l279 -211q-244 -369 -797 -369z" />
    <glyph glyph-name="Egrave" unicode="&#xc8;" horiz-adv-x="1662" 
d="M1079 1614l-116 -141l-484 299l172 243zM561 322h1008v-322h-1362v1382h1347v-319h-993v-225h776v-279h-776v-237z" />
    <glyph glyph-name="Eacute" unicode="&#xc9;" horiz-adv-x="1662" 
d="M1313 1772l-484 -299l-116 141l426 401zM561 322h1008v-322h-1362v1382h1347v-319h-993v-225h776v-279h-776v-237z" />
    <glyph glyph-name="Ecircumflex" unicode="&#xca;" horiz-adv-x="1662" 
d="M891 1720l-367 -247l-116 141l389 401h186l389 -401l-115 -141zM561 322h1008v-322h-1362v1382h1347v-319h-993v-225h776v-279h-776v-237z" />
    <glyph glyph-name="Edieresis" unicode="&#xcb;" horiz-adv-x="1662" 
d="M614 1516q-100 0 -153 53t-53 153q0 95 53 145t153 50q98 0 153.5 -50.5t55.5 -144.5q0 -99 -55.5 -152.5t-153.5 -53.5zM1169 1516q-98 0 -151 53t-53 153q0 95 52.5 145t151.5 50t155 -50.5t56 -144.5q0 -99 -56 -152.5t-155 -53.5zM561 322h1008v-322h-1362v1382h1347
v-319h-993v-225h776v-279h-776v-237z" />
    <glyph glyph-name="Igrave" unicode="&#xcc;" horiz-adv-x="768" 
d="M-27 1772l172 243l428 -401l-116 -141zM207 0v1382h354v-1382h-354z" />
    <glyph glyph-name="Iacute" unicode="&#xcd;" horiz-adv-x="768" 
d="M807 1772l-483 -299l-117 141l426 401zM207 0v1382h354v-1382h-354z" />
    <glyph glyph-name="Icircumflex" unicode="&#xce;" horiz-adv-x="768" 
d="M477 2015l389 -401l-114 -141l-367 247l-367 -247l-116 141l389 401h186zM207 0v1382h354v-1382h-354z" />
    <glyph glyph-name="Idieresis" unicode="&#xcf;" horiz-adv-x="768" 
d="M109 1516q-100 0 -153.5 53t-53.5 153q0 95 53.5 145t153.5 50q98 0 153 -50.5t55 -144.5q0 -99 -55 -152.5t-153 -53.5zM664 1516q-98 0 -151.5 53t-53.5 153q0 95 53 145t152 50t154.5 -50.5t55.5 -144.5q0 -99 -55.5 -152.5t-154.5 -53.5zM207 0v1382h354v-1382h-354z
" />
    <glyph glyph-name="Eth" unicode="&#xd0;" horiz-adv-x="1908" 
d="M1004 1382q387 0 578.5 -167t191.5 -492v-61q0 -662 -770 -662h-797v549h-125v282h125v551h797zM1417 659v66q0 180 -103 255t-310 75h-443v-224h518v-282h-518v-221h443q208 0 310.5 74.5t102.5 256.5z" />
    <glyph glyph-name="Ntilde" unicode="&#xd1;" horiz-adv-x="1873" 
d="M444 1499q-7 114 12.5 200t60.5 135t92.5 73t113.5 24q27 0 49.5 -3t47.5 -13.5t36.5 -15.5t44 -24t41.5 -24q12 -8 33.5 -23t31.5 -21t24.5 -11.5t27.5 -5.5q30 0 43 38t4 99h280q11 -215 -74 -324.5t-214 -109.5q-14 0 -27 1t-26.5 4t-22.5 4.5t-22 7.5t-19 8
t-20.5 10.5t-18 10.5t-20 12t-19.5 12q-7 4 -24 16t-22.5 15.5t-18.5 11t-20 9.5t-17.5 4.5t-20.5 2.5q-68 0 -55 -123h-281zM1319 1382h348v-1382h-356l-758 883v-883h-346v1382h354l758 -880v880z" />
    <glyph glyph-name="Ograve" unicode="&#xd2;" horiz-adv-x="1925" 
d="M551 1772l172 243l428 -401l-117 -141zM961 -37q-421 0 -631.5 176t-210.5 518v70q0 341 210.5 516.5t631.5 175.5q422 0 633.5 -175.5t211.5 -516.5v-70q0 -342 -211.5 -518t-633.5 -176zM961 291q83 0 153.5 11t133.5 37.5t107 67.5t69.5 103.5t25.5 142.5v76
q0 81 -25.5 143.5t-69.5 103.5t-107 67.5t-133.5 37.5t-153.5 11q-82 0 -151.5 -11t-132.5 -37.5t-107 -67.5t-69.5 -103.5t-25.5 -143.5v-76q0 -99 38.5 -171.5t107.5 -113t153 -59t187 -18.5z" />
    <glyph glyph-name="Oacute" unicode="&#xd3;" horiz-adv-x="1925" 
d="M1384 1772l-483 -299l-117 141l426 401zM961 -37q-421 0 -631.5 176t-210.5 518v70q0 341 210.5 516.5t631.5 175.5q422 0 633.5 -175.5t211.5 -516.5v-70q0 -342 -211.5 -518t-633.5 -176zM961 291q83 0 153.5 11t133.5 37.5t107 67.5t69.5 103.5t25.5 142.5v76
q0 81 -25.5 143.5t-69.5 103.5t-107 67.5t-133.5 37.5t-153.5 11q-82 0 -151.5 -11t-132.5 -37.5t-107 -67.5t-69.5 -103.5t-25.5 -143.5v-76q0 -99 38.5 -171.5t107.5 -113t153 -59t187 -18.5z" />
    <glyph glyph-name="Ocircumflex" unicode="&#xd4;" horiz-adv-x="1925" 
d="M963 1720l-367 -247l-117 141l389 401h187l389 -401l-115 -141zM961 1419q422 0 633.5 -175.5t211.5 -516.5v-70q0 -342 -211.5 -518t-633.5 -176q-421 0 -631.5 176t-210.5 518v70q0 341 210.5 516.5t631.5 175.5zM1450 653v76q0 81 -25.5 143.5t-69.5 103.5t-107 67.5
t-133.5 37.5t-153.5 11q-82 0 -151.5 -11t-132.5 -37.5t-107 -67.5t-69.5 -103.5t-25.5 -143.5v-76q0 -99 38.5 -171.5t107.5 -113t153 -59t187 -18.5q83 0 153.5 11t133.5 37.5t107 67.5t69.5 103.5t25.5 142.5z" />
    <glyph glyph-name="Otilde" unicode="&#xd5;" horiz-adv-x="1925" 
d="M469 1499q-7 114 12.5 200t60.5 135t92.5 73t113.5 24q27 0 49.5 -3t47.5 -13.5t36.5 -15.5t44 -24t41.5 -24q12 -8 33 -22.5t31 -21t24.5 -12t27.5 -5.5q30 0 43 38t4 99h281q11 -215 -74.5 -324.5t-214.5 -109.5q-16 0 -31.5 2t-26.5 3.5t-26.5 7.5t-22 8t-23 11
t-20 11t-22.5 13.5t-22 13.5q-7 4 -24 16t-22.5 15.5t-18.5 11t-20 9.5t-17.5 4.5t-20.5 2.5q-68 0 -55 -123h-281zM961 -37q-421 0 -631.5 176t-210.5 518v70q0 341 210.5 516.5t631.5 175.5q422 0 633.5 -175.5t211.5 -516.5v-70q0 -342 -211.5 -518t-633.5 -176zM961 291
q83 0 153.5 11t133.5 37.5t107 67.5t69.5 103.5t25.5 142.5v76q0 81 -25.5 143.5t-69.5 103.5t-107 67.5t-133.5 37.5t-153.5 11q-82 0 -151.5 -11t-132.5 -37.5t-107 -67.5t-69.5 -103.5t-25.5 -143.5v-76q0 -99 38.5 -171.5t107.5 -113t153 -59t187 -18.5z" />
    <glyph glyph-name="Odieresis" unicode="&#xd6;" horiz-adv-x="1925" 
d="M686 1516q-100 0 -153.5 53t-53.5 153q0 95 53.5 145t153.5 50q98 0 153.5 -50.5t55.5 -144.5q0 -99 -55.5 -152.5t-153.5 -53.5zM1241 1516q-99 0 -152 53t-53 153q0 95 53 145t152 50t155 -50.5t56 -144.5q0 -99 -56 -152.5t-155 -53.5zM961 -37q-421 0 -631.5 176
t-210.5 518v70q0 341 210.5 516.5t631.5 175.5q422 0 633.5 -175.5t211.5 -516.5v-70q0 -342 -211.5 -518t-633.5 -176zM961 291q83 0 153.5 11t133.5 37.5t107 67.5t69.5 103.5t25.5 142.5v76q0 81 -25.5 143.5t-69.5 103.5t-107 67.5t-133.5 37.5t-153.5 11
q-82 0 -151.5 -11t-132.5 -37.5t-107 -67.5t-69.5 -103.5t-25.5 -143.5v-76q0 -99 38.5 -171.5t107.5 -113t153 -59t187 -18.5z" />
    <glyph glyph-name="multiply" unicode="&#xd7;" horiz-adv-x="1386" 
d="M1321 305l-191 -192l-436 370l-438 -370l-190 192l419 354l-403 342l190 193l422 -356l420 356l191 -193l-404 -342z" />
    <glyph glyph-name="Oslash" unicode="&#xd8;" horiz-adv-x="1925" 
d="M1819 1257l-125 -120q112 -156 112 -410v-70q0 -342 -211.5 -518t-633.5 -176q-250 0 -433 66l-149 -146l-277 215l140 133q-123 167 -123 426v70q0 341 210.5 516.5t631.5 175.5q267 0 450 -71l129 125zM1450 653v76q0 81 -25.5 143.5t-69.5 103.5t-107 67.5
t-133.5 37.5t-153.5 11q-82 0 -151.5 -11t-132.5 -37.5t-107 -67.5t-69.5 -103.5t-25.5 -143.5v-76q0 -99 38.5 -171.5t107.5 -113t153 -59t187 -18.5q83 0 153.5 11t133.5 37.5t107 67.5t69.5 103.5t25.5 142.5z" />
    <glyph glyph-name="Ugrave" unicode="&#xd9;" horiz-adv-x="1759" 
d="M469 1772l172 243l428 -401l-117 -141zM874 -37q-370 0 -553.5 181.5t-183.5 547.5v690h357v-692q0 -113 28 -193t81.5 -124t119 -63t151.5 -19q66 0 121.5 11.5t106.5 40t86.5 72.5t56.5 114t21 161v692h356v-690q0 -366 -186 -547.5t-562 -181.5z" />
    <glyph glyph-name="Uacute" unicode="&#xda;" horiz-adv-x="1759" 
d="M1303 1772l-484 -299l-117 141l426 401zM874 -37q-370 0 -553.5 181.5t-183.5 547.5v690h357v-692q0 -113 28 -193t81.5 -124t119 -63t151.5 -19q66 0 121.5 11.5t106.5 40t86.5 72.5t56.5 114t21 161v692h356v-690q0 -366 -186 -547.5t-562 -181.5z" />
    <glyph glyph-name="Ucircumflex" unicode="&#xdb;" horiz-adv-x="1759" 
d="M881 1720l-367 -247l-117 141l389 401h187l389 -401l-115 -141zM1266 1382h356v-690q0 -366 -186 -547.5t-562 -181.5q-370 0 -553.5 181.5t-183.5 547.5v690h357v-692q0 -113 28 -193t81.5 -124t119 -63t151.5 -19q66 0 121.5 11.5t106.5 40t86.5 72.5t56.5 114t21 161
v692z" />
    <glyph glyph-name="Udieresis" unicode="&#xdc;" horiz-adv-x="1759" 
d="M604 1516q-100 0 -153.5 53t-53.5 153q0 95 53.5 145t153.5 50q98 0 153.5 -50.5t55.5 -144.5q0 -99 -55.5 -152.5t-153.5 -53.5zM1159 1516q-99 0 -152 53t-53 153q0 95 53 145t152 50t155 -50.5t56 -144.5q0 -99 -56 -152.5t-155 -53.5zM874 -37q-370 0 -553.5 181.5
t-183.5 547.5v690h357v-692q0 -113 28 -193t81.5 -124t119 -63t151.5 -19q66 0 121.5 11.5t106.5 40t86.5 72.5t56.5 114t21 161v692h356v-690q0 -366 -186 -547.5t-562 -181.5z" />
    <glyph glyph-name="Yacute" unicode="&#xdd;" horiz-adv-x="1787" 
d="M1317 1772l-483 -299l-117 141l426 401zM1759 1382l-682 -899v-483h-356v487l-692 895h420l446 -604l442 604h422z" />
    <glyph glyph-name="Thorn" unicode="&#xde;" horiz-adv-x="1701" 
d="M1057 1237q135 0 232.5 -24t168.5 -78t106 -146.5t35 -224.5q0 -237 -140 -362.5t-402 -125.5h-504v-276h-346v1382h346v-145h504zM1030 588q215 0 215 176q0 87 -53 120.5t-162 33.5h-477v-330h477z" />
    <glyph glyph-name="germandbls" unicode="&#xdf;" horiz-adv-x="1665" 
d="M1155 780q216 -10 322 -107t106 -270q0 -103 -32.5 -182.5t-84.5 -127.5t-124.5 -78t-143 -41t-149.5 -11q-158 0 -248 13.5t-176 46.5l30 309q111 -66 314 -66q126 0 194 38t68 130q0 82 -67 120t-208 38h-294v276h126q124 0 197.5 55t73.5 158q0 199 -238 199
q-70 0 -117.5 -12t-89 -45t-62 -100t-20.5 -169v-954h-354v948q0 124 20.5 221t61 165t95 115t129 74t155.5 38.5t182 11.5q141 0 244.5 -21t183.5 -70t121 -135.5t41 -211.5q0 -141 -67.5 -228.5t-188.5 -126.5z" />
    <glyph glyph-name="agrave" unicode="&#xe0;" horiz-adv-x="1374" 
d="M874 1190l-116 -141l-484 299l172 243zM676 995q106 0 189 -11t159.5 -40t126.5 -77.5t79.5 -126t29.5 -181.5v-559h-320v127q-78 -92 -193.5 -128t-277.5 -36q-204 0 -295.5 77t-91.5 230q0 148 96 215.5t311 67.5h412q-20 78 -95.5 112.5t-213.5 34.5
q-113 0 -196.5 -24.5t-166.5 -77.5l-129 260q212 137 576 137zM567 219q266 0 340 111v39h-379q-94 0 -94 -72q0 -78 133 -78z" />
    <glyph glyph-name="aacute" unicode="&#xe1;" horiz-adv-x="1374" 
d="M1110 1348l-483 -299l-117 141l426 401zM676 995q106 0 189 -11t159.5 -40t126.5 -77.5t79.5 -126t29.5 -181.5v-559h-320v127q-78 -92 -193.5 -128t-277.5 -36q-204 0 -295.5 77t-91.5 230q0 148 96 215.5t311 67.5h412q-20 78 -95.5 112.5t-213.5 34.5
q-113 0 -196.5 -24.5t-166.5 -77.5l-129 260q212 137 576 137zM567 219q266 0 340 111v39h-379q-94 0 -94 -72q0 -78 133 -78z" />
    <glyph glyph-name="acircumflex" unicode="&#xe2;" horiz-adv-x="1374" 
d="M688 1296l-366 -247l-117 141l389 401h186l389 -401l-114 -141zM676 995q106 0 189 -11t159.5 -40t126.5 -77.5t79.5 -126t29.5 -181.5v-559h-320v127q-78 -92 -193.5 -128t-277.5 -36q-204 0 -295.5 77t-91.5 230q0 148 96 215.5t311 67.5h412q-20 78 -95.5 112.5
t-213.5 34.5q-113 0 -196.5 -24.5t-166.5 -77.5l-129 260q212 137 576 137zM567 219q266 0 340 111v39h-379q-94 0 -94 -72q0 -78 133 -78z" />
    <glyph glyph-name="atilde" unicode="&#xe3;" horiz-adv-x="1374" 
d="M195 1075q-7 114 12.5 199.5t60 135t92 73.5t113.5 24q27 0 49.5 -3t47.5 -13.5t36.5 -15.5t44 -24t41.5 -24q12 -8 33.5 -23t31.5 -21t24.5 -11.5t27.5 -5.5q30 0 43 38t4 99h281q11 -215 -74.5 -324.5t-214.5 -109.5q-14 0 -27 1t-26.5 4t-22.5 4.5t-22 7.5t-19 8
t-20.5 10.5t-18 10.5t-20 12t-19.5 12q-7 4 -24 16t-22.5 15.5t-18.5 11t-20 9.5t-17.5 4.5t-20.5 2.5q-68 0 -55 -123h-280zM676 995q106 0 189 -11t159.5 -40t126.5 -77.5t79.5 -126t29.5 -181.5v-559h-320v125q-80 -91 -195 -126.5t-276 -35.5q-204 0 -295.5 77
t-91.5 230q0 148 96 215.5t311 67.5h410q-18 78 -93.5 112.5t-213.5 34.5q-113 0 -196.5 -24.5t-166.5 -77.5l-129 260q212 137 576 137zM567 219q263 0 340 111v39h-379q-94 0 -94 -72q0 -78 133 -78z" />
    <glyph glyph-name="adieresis" unicode="&#xe4;" horiz-adv-x="1374" 
d="M410 1090q-100 0 -153.5 54t-53.5 154q0 95 53.5 144t153.5 49q98 0 153 -49.5t55 -143.5q0 -99 -55.5 -153.5t-152.5 -54.5zM965 1090q-98 0 -151.5 54t-53.5 154q0 95 53 144t152 49q100 0 155.5 -49.5t55.5 -143.5q0 -99 -56 -153.5t-155 -54.5zM676 995
q106 0 189 -11t159.5 -40t126.5 -77.5t79.5 -126t29.5 -181.5v-559h-320v127q-78 -92 -193.5 -128t-277.5 -36q-204 0 -295.5 77t-91.5 230q0 148 96 215.5t311 67.5h412q-20 78 -95.5 112.5t-213.5 34.5q-113 0 -196.5 -24.5t-166.5 -77.5l-129 260q212 137 576 137z
M567 219q266 0 340 111v39h-379q-94 0 -94 -72q0 -78 133 -78z" />
    <glyph glyph-name="aring" unicode="&#xe5;" horiz-adv-x="1374" 
d="M686 1073q-229 0 -348 78.5t-119 210.5v14q0 132 119 210.5t348 78.5q227 0 343 -78t116 -211v-14q0 -133 -116 -211t-343 -78zM477 1372v-6q0 -80 209 -80q203 0 203 80v6q0 39 -45 58.5t-158 19.5q-114 0 -161.5 -19.5t-47.5 -58.5zM676 995q106 0 189 -11t159.5 -40
t126.5 -77.5t79.5 -126t29.5 -181.5v-559h-320v127q-78 -92 -193.5 -128t-277.5 -36q-204 0 -295.5 77t-91.5 230q0 148 96 215.5t311 67.5h412q-20 78 -95.5 112.5t-213.5 34.5q-113 0 -196.5 -24.5t-166.5 -77.5l-129 260q212 137 576 137zM567 219q266 0 340 111v39h-379
q-94 0 -94 -72q0 -78 133 -78z" />
    <glyph glyph-name="ae" unicode="&#xe6;" horiz-adv-x="2209" 
d="M2132 526v-104h-834q10 -91 84 -126.5t226 -35.5q264 0 409 76l113 -252q-99 -61 -235 -91t-336 -30q-333 0 -472 170q-83 -95 -221.5 -132.5t-341.5 -37.5q-219 0 -314 77t-95 230q0 136 97.5 202.5t309.5 66.5h412q-20 70 -94.5 115.5t-198.5 45.5t-210 -24.5
t-169 -77.5l-129 260q108 70 243 103.5t333 33.5q306 0 430 -129q152 129 471 129q74 0 142.5 -12t139.5 -44.5t122.5 -83t84.5 -135.5t33 -194zM1542 700q-73 0 -123.5 -12.5t-85 -49t-37.5 -97.5h484q-2 46 -21 78t-52.5 49.5t-73 24.5t-91.5 7zM651 227q233 0 289 107v41
h-348q-123 0 -123 -66q0 -40 40.5 -61t141.5 -21z" />
    <glyph glyph-name="ccedilla" unicode="&#xe7;" horiz-adv-x="1449" 
d="M776 260q236 0 367 119l178 -229q-93 -98 -224 -140t-311 -47l-12 -45q154 3 227.5 -41t73.5 -143q0 -56 -24 -94.5t-69.5 -59t-98 -29t-121.5 -8.5q-93 0 -162 11.5t-88 21.5l35 154q66 -23 174 -23q115 0 115 39q0 40 -240 35l31 186q-86 7 -159 26.5t-139 57t-112 91
t-73 132t-27 175.5v63q0 108 33.5 192t91 138.5t140.5 89t175.5 49t202.5 14.5q183 0 316.5 -37t252.5 -135l-207 -229q-64 60 -150.5 83t-203.5 23q-299 0 -299 -202v-33q0 -205 307 -205z" />
    <glyph glyph-name="egrave" unicode="&#xe8;" horiz-adv-x="1411" 
d="M913 1190l-116 -141l-484 299l172 243zM1333 526v-104h-862q9 -90 73.5 -126t196.5 -36q146 0 236 19t153 69l193 -225q-105 -86 -244.5 -123t-343.5 -37q-108 0 -195.5 12t-168.5 44t-135 84t-86.5 136t-32.5 195v92q0 469 610 469q84 0 156 -8.5t142.5 -28.5
t124.5 -55.5t96 -86t64.5 -124.5t22.5 -166zM727 700q-118 0 -184.5 -33.5t-73.5 -119.5h512q-7 86 -72.5 119.5t-181.5 33.5z" />
    <glyph glyph-name="eacute" unicode="&#xe9;" horiz-adv-x="1411" 
d="M1147 1348l-483 -299l-117 141l426 401zM1333 526v-104h-862q9 -90 73.5 -126t196.5 -36q146 0 236 19t153 69l193 -225q-105 -86 -244.5 -123t-343.5 -37q-108 0 -195.5 12t-168.5 44t-135 84t-86.5 136t-32.5 195v92q0 469 610 469q84 0 156 -8.5t142.5 -28.5
t124.5 -55.5t96 -86t64.5 -124.5t22.5 -166zM727 700q-118 0 -184.5 -33.5t-73.5 -119.5h512q-7 86 -72.5 119.5t-181.5 33.5z" />
    <glyph glyph-name="ecircumflex" unicode="&#xea;" horiz-adv-x="1411" 
d="M725 1296l-367 -247l-116 141l389 401h186l389 -401l-114 -141zM1333 526v-104h-862q9 -90 73.5 -126t196.5 -36q146 0 236 19t153 69l193 -225q-105 -86 -244.5 -123t-343.5 -37q-108 0 -195.5 12t-168.5 44t-135 84t-86.5 136t-32.5 195v92q0 469 610 469
q84 0 156 -8.5t142.5 -28.5t124.5 -55.5t96 -86t64.5 -124.5t22.5 -166zM727 700q-118 0 -184.5 -33.5t-73.5 -119.5h512q-7 86 -72.5 119.5t-181.5 33.5z" />
    <glyph glyph-name="edieresis" unicode="&#xeb;" horiz-adv-x="1411" 
d="M449 1090q-100 0 -153.5 54t-53.5 154q0 95 53.5 144t153.5 49q98 0 153 -49.5t55 -143.5q0 -99 -55.5 -153.5t-152.5 -54.5zM1004 1090q-98 0 -151.5 54t-53.5 154q0 95 53 144t152 49q100 0 155 -49.5t55 -143.5q0 -99 -55.5 -153.5t-154.5 -54.5zM1333 526v-104h-862
q9 -90 73.5 -126t196.5 -36q146 0 236 19t153 69l193 -225q-105 -86 -244.5 -123t-343.5 -37q-108 0 -195.5 12t-168.5 44t-135 84t-86.5 136t-32.5 195v92q0 469 610 469q84 0 156 -8.5t142.5 -28.5t124.5 -55.5t96 -86t64.5 -124.5t22.5 -166zM727 700
q-118 0 -184.5 -33.5t-73.5 -119.5h512q-7 86 -72.5 119.5t-181.5 33.5z" />
    <glyph glyph-name="igrave" unicode="&#xec;" horiz-adv-x="745" 
d="M-39 1348l172 243l428 -401l-117 -141zM197 0v958h352v-958h-352z" />
    <glyph glyph-name="iacute" unicode="&#xed;" horiz-adv-x="745" 
d="M797 1348l-484 -299l-116 141l426 401zM197 0v958h352v-958h-352z" />
    <glyph glyph-name="icircumflex" unicode="&#xee;" horiz-adv-x="745" 
d="M467 1591l389 -401l-115 -141l-366 247l-367 -247l-117 141l390 401h186zM197 0v958h352v-958h-352z" />
    <glyph glyph-name="idieresis" unicode="&#xef;" horiz-adv-x="745" 
d="M96 1090q-100 0 -153.5 54t-53.5 154q0 95 53.5 144t153.5 49q98 0 153.5 -49.5t55.5 -143.5q0 -99 -55.5 -153.5t-153.5 -54.5zM651 1090q-98 0 -151.5 54t-53.5 154q0 95 53 144t152 49q100 0 155.5 -49.5t55.5 -143.5q0 -99 -56 -153.5t-155 -54.5zM197 0v958h352
v-958h-352z" />
    <glyph glyph-name="eth" unicode="&#xf0;" horiz-adv-x="1771" 
d="M1456 1188q201 -183 201 -541v-33q0 -335 -197 -493t-622 -158q-148 0 -261 13t-206.5 43.5t-153 80.5t-91.5 125t-32 176q0 86 29.5 150t83.5 106.5t139 68.5t187.5 37t236.5 11q410 0 533 -162v60q-3 211 -132 315l-268 -190l-96 131l199 141q-248 68 -756 0v324
q729 65 1065 -107l270 191l96 -129zM848 274q399 0 399 121q0 57 -92.5 83t-312.5 26q-157 0 -244.5 -12.5t-119.5 -35.5t-32 -63q0 -63 87.5 -91t314.5 -28z" />
    <glyph glyph-name="ntilde" unicode="&#xf1;" horiz-adv-x="1591" 
d="M330 1075q-7 114 12.5 199.5t60 135t92 73.5t113.5 24q27 0 49.5 -3t47.5 -13.5t36.5 -15.5t44 -24t41.5 -24q12 -8 33.5 -23t31.5 -21t24.5 -11.5t27.5 -5.5q30 0 43 38t4 99h281q11 -215 -74.5 -324.5t-214.5 -109.5q-14 0 -27 1t-26.5 4t-22.5 4.5t-22 7.5t-19 8
t-20.5 10.5t-18 10.5t-20 12t-19.5 12q-8 5 -24 16t-22.5 15t-18.5 11t-19.5 9.5t-17.5 5t-20 2.5q-69 0 -56 -123h-280zM963 995q454 0 454 -432v-563h-352v471q0 119 -61 166t-166 47q-92 0 -169 -30t-120 -76v-578h-352v958h323v-106q74 68 188.5 105.5t254.5 37.5z" />
    <glyph glyph-name="ograve" unicode="&#xf2;" horiz-adv-x="1533" 
d="M356 1348l172 243l428 -401l-116 -141zM766 -37q-108 0 -200 14.5t-176.5 49.5t-143.5 89.5t-94 139t-35 193.5v63q0 108 35 192.5t94 138.5t143.5 88.5t176.5 49t200 14.5t200.5 -14.5t177 -49t144 -88.5t94.5 -138.5t35 -192.5v-63q0 -109 -35 -193.5t-94.5 -139
t-144 -89.5t-177 -49.5t-200.5 -14.5zM766 260q299 0 299 205v33q0 202 -299 202q-297 0 -297 -202v-33q0 -205 297 -205z" />
    <glyph glyph-name="oacute" unicode="&#xf3;" horiz-adv-x="1533" 
d="M1190 1348l-483 -299l-117 141l426 401zM766 -37q-108 0 -200 14.5t-176.5 49.5t-143.5 89.5t-94 139t-35 193.5v63q0 108 35 192.5t94 138.5t143.5 88.5t176.5 49t200 14.5t200.5 -14.5t177 -49t144 -88.5t94.5 -138.5t35 -192.5v-63q0 -109 -35 -193.5t-94.5 -139
t-144 -89.5t-177 -49.5t-200.5 -14.5zM766 260q299 0 299 205v33q0 202 -299 202q-297 0 -297 -202v-33q0 -205 297 -205z" />
    <glyph glyph-name="ocircumflex" unicode="&#xf4;" horiz-adv-x="1533" 
d="M768 1296l-367 -247l-116 141l389 401h186l389 -401l-114 -141zM766 995q108 0 200.5 -14.5t177 -49t144 -88.5t94.5 -138.5t35 -192.5v-63q0 -109 -35 -193.5t-94.5 -139t-144 -89.5t-177 -49.5t-200.5 -14.5t-200 14.5t-176.5 49.5t-143.5 89.5t-94 139t-35 193.5v63
q0 108 35 192.5t94 138.5t143.5 88.5t176.5 49t200 14.5zM1065 465v33q0 202 -299 202q-297 0 -297 -202v-33q0 -205 297 -205q299 0 299 205z" />
    <glyph glyph-name="otilde" unicode="&#xf5;" horiz-adv-x="1533" 
d="M274 1075q-7 114 12.5 200t60.5 135t92.5 73t113.5 24q27 0 49.5 -3t47.5 -13.5t36.5 -15.5t44 -24t41.5 -24q12 -8 33.5 -23t31.5 -21t24.5 -11.5t27.5 -5.5q30 0 43 38t4 99h281q11 -215 -74.5 -324.5t-214.5 -109.5q-14 0 -27 1t-26.5 4t-22.5 4.5t-22 7.5t-19 8
t-20.5 10.5t-18 10.5t-20 12t-19.5 12q-7 4 -24 16t-22.5 15.5t-18.5 11t-20 9.5t-17.5 4.5t-20.5 2.5q-68 0 -55 -123h-281zM766 -37q-108 0 -200 14.5t-176.5 49.5t-143.5 89.5t-94 139t-35 193.5v63q0 108 35 192.5t94 138.5t143.5 88.5t176.5 49t200 14.5t200.5 -14.5
t177 -49t144 -88.5t94.5 -138.5t35 -192.5v-63q0 -109 -35 -193.5t-94.5 -139t-144 -89.5t-177 -49.5t-200.5 -14.5zM766 260q299 0 299 205v33q0 202 -299 202q-297 0 -297 -202v-33q0 -205 297 -205z" />
    <glyph glyph-name="odieresis" unicode="&#xf6;" horiz-adv-x="1533" 
d="M492 1090q-100 0 -153.5 54t-53.5 154q0 95 53.5 144t153.5 49q98 0 153 -49.5t55 -143.5q0 -99 -55.5 -153.5t-152.5 -54.5zM1047 1090q-98 0 -151.5 54t-53.5 154q0 95 53 144t152 49q100 0 155 -49.5t55 -143.5q0 -99 -55.5 -153.5t-154.5 -54.5zM766 -37
q-108 0 -200 14.5t-176.5 49.5t-143.5 89.5t-94 139t-35 193.5v63q0 108 35 192.5t94 138.5t143.5 88.5t176.5 49t200 14.5t200.5 -14.5t177 -49t144 -88.5t94.5 -138.5t35 -192.5v-63q0 -109 -35 -193.5t-94.5 -139t-144 -89.5t-177 -49.5t-200.5 -14.5zM766 260
q299 0 299 205v33q0 202 -299 202q-297 0 -297 -202v-33q0 -205 297 -205z" />
    <glyph glyph-name="divide" unicode="&#xf7;" horiz-adv-x="1411" 
d="M698 874q-129 0 -180 38.5t-51 117.5q0 77 50.5 112.5t180.5 35.5q131 0 185.5 -36t54.5 -112q0 -78 -55 -117t-185 -39zM66 520v250h1280v-250h-1280zM698 113q-131 0 -182 38t-51 117q0 76 51.5 112t181.5 36t185 -36.5t55 -111.5q0 -79 -55 -117.5t-185 -37.5z" />
    <glyph glyph-name="oslash" unicode="&#xf8;" horiz-adv-x="1533" 
d="M1421 862l-92 -65q88 -115 88 -285v-63q0 -109 -35 -193.5t-94.5 -139t-144 -89.5t-177 -49.5t-200.5 -14.5q-296 0 -459 107l-121 -86l-51 67l103 74q-121 118 -121 324v63q0 108 35 192.5t94 138.5t143.5 88.5t176.5 49t200 14.5q333 0 502 -137l102 74zM469 465
q0 -85 55 -137l457 327q-75 45 -215 45q-297 0 -297 -202v-33zM1065 498q0 53 -23 94l-436 -309q68 -23 160 -23q299 0 299 205v33z" />
    <glyph glyph-name="ugrave" unicode="&#xf9;" horiz-adv-x="1591" 
d="M985 1190l-117 -141l-483 299l172 243zM1055 958h352v-960h-326v106q-73 -68 -186 -105.5t-252 -37.5q-59 0 -111 8t-105 26t-94.5 51t-74.5 79t-50.5 114.5t-17.5 153.5v565h353v-473q0 -118 60.5 -164.5t166.5 -46.5q90 0 166.5 30t118.5 75v579z" />
    <glyph glyph-name="uacute" unicode="&#xfa;" horiz-adv-x="1591" 
d="M1219 1348l-484 -299l-117 141l426 401zM1055 958h352v-960h-326v106q-73 -68 -186 -105.5t-252 -37.5q-59 0 -111 8t-105 26t-94.5 51t-74.5 79t-50.5 114.5t-17.5 153.5v565h353v-473q0 -118 60.5 -164.5t166.5 -46.5q90 0 166.5 30t118.5 75v579z" />
    <glyph glyph-name="ucircumflex" unicode="&#xfb;" horiz-adv-x="1591" 
d="M797 1296l-367 -247l-117 141l389 401h187l389 -401l-115 -141zM1055 958h352v-960h-326v106q-73 -68 -186 -105.5t-252 -37.5q-59 0 -111 8t-105 26t-94.5 51t-74.5 79t-50.5 114.5t-17.5 153.5v565h353v-473q0 -118 60.5 -164.5t166.5 -46.5q90 0 166.5 30t118.5 75
v579z" />
    <glyph glyph-name="udieresis" unicode="&#xfc;" horiz-adv-x="1591" 
d="M520 1090q-100 0 -153.5 54t-53.5 154q0 95 53.5 144t153.5 49q98 0 153.5 -49.5t55.5 -143.5q0 -99 -55.5 -153.5t-153.5 -54.5zM1075 1090q-98 0 -151.5 54t-53.5 154q0 95 53 144t152 49q100 0 155.5 -49.5t55.5 -143.5q0 -99 -56 -153.5t-155 -54.5zM1055 958h352
v-960h-326v106q-73 -68 -186 -105.5t-252 -37.5q-59 0 -111 8t-105 26t-94.5 51t-74.5 79t-50.5 114.5t-17.5 153.5v565h353v-473q0 -118 60.5 -164.5t166.5 -46.5q90 0 166.5 30t118.5 75v579z" />
    <glyph glyph-name="yacute" unicode="&#xfd;" horiz-adv-x="1497" 
d="M1171 1348l-483 -299l-117 141l426 401zM1042 958h435l-740 -1355h-375l191 356l-533 999h435l280 -634z" />
    <glyph glyph-name="thorn" unicode="&#xfe;" horiz-adv-x="1667" 
d="M979 995q97 0 179 -14.5t156 -49t125 -89t81 -138.5t30 -192v-63q0 -486 -587 -486q-295 0 -433 98v-458h-352v1933h342v-670q138 129 459 129zM1198 465v33q0 202 -303 202q-314 0 -365 -139v-158q25 -81 113.5 -112t251.5 -31q303 0 303 205z" />
    <glyph glyph-name="ydieresis" unicode="&#xff;" horiz-adv-x="1497" 
d="M473 1090q-100 0 -153.5 54t-53.5 154q0 95 53.5 144t153.5 49q98 0 153.5 -49.5t55.5 -143.5q0 -99 -55.5 -153.5t-153.5 -54.5zM1028 1090q-98 0 -151.5 54t-53.5 154q0 95 53 144t152 49q100 0 155.5 -49.5t55.5 -143.5q0 -99 -56 -153.5t-155 -54.5zM1042 958h435
l-740 -1355h-375l191 356l-533 999h435l280 -634z" />
    <glyph glyph-name="Amacron" unicode="&#x100;" horiz-adv-x="1773" 
d="M1399 1864v-281h-1024v281h1024zM1333 0l-86 205h-723l-84 -205h-393l617 1386h440l622 -1386h-393zM641 489h487l-243 588z" />
    <glyph glyph-name="amacron" unicode="&#x101;" horiz-adv-x="1374" 
d="M1198 1440v-281h-1024v281h1024zM676 995q106 0 189 -11t159.5 -40t126.5 -77.5t79.5 -126t29.5 -181.5v-559h-320v127q-78 -92 -193.5 -128t-277.5 -36q-204 0 -295.5 77t-91.5 230q0 148 96 215.5t311 67.5h412q-20 78 -95.5 112.5t-213.5 34.5q-113 0 -196.5 -24.5
t-166.5 -77.5l-129 260q212 137 576 137zM567 219q266 0 340 111v39h-379q-94 0 -94 -72q0 -78 133 -78z" />
    <glyph glyph-name="Abreve" unicode="&#x102;" horiz-adv-x="1773" 
d="M891 1464q-127 0 -226 36.5t-161 101.5t-93.5 151t-31.5 189h317q0 -88 48.5 -153t146.5 -65t143 64t45 154h318q0 -103 -30.5 -189t-91.5 -151t-159 -101.5t-225 -36.5zM1333 0l-86 205h-723l-84 -205h-393l617 1386h440l622 -1386h-393zM641 489h487l-243 588z" />
    <glyph glyph-name="abreve" unicode="&#x103;" horiz-adv-x="1374" 
d="M690 1040q-127 0 -226 36.5t-161 101.5t-93.5 151t-31.5 189h318q0 -56 18 -103t63.5 -81t112.5 -34q51 0 89.5 19t59 51.5t30.5 69t10 78.5h317q0 -103 -30.5 -189t-91.5 -151t-159 -101.5t-225 -36.5zM676 995q106 0 189 -11t159.5 -40t126.5 -77.5t79.5 -126
t29.5 -181.5v-559h-320v127q-78 -92 -193.5 -128t-277.5 -36q-204 0 -295.5 77t-91.5 230q0 148 96 215.5t311 67.5h412q-20 78 -95.5 112.5t-213.5 34.5q-113 0 -196.5 -24.5t-166.5 -77.5l-129 260q212 137 576 137zM567 219q266 0 340 111v39h-379q-94 0 -94 -72
q0 -78 133 -78z" />
    <glyph glyph-name="Aogonek" unicode="&#x104;" horiz-adv-x="1773" 
d="M1526 -221q96 0 162 22l10 -213q-81 -24 -244 -24q-155 0 -225 46.5t-70 147.5q0 148 187 242h-13l-86 205h-723l-84 -205h-393l617 1386h440l622 -1386q-136 -33 -214 -80.5t-78 -93.5q0 -47 92 -47zM641 489h487l-243 588z" />
    <glyph glyph-name="aogonek" unicode="&#x105;" horiz-adv-x="1374" 
d="M1176 0q-124 -41 -183 -78t-59 -78q0 -47 92 -47q93 0 162 23l10 -213q-91 -27 -244 -27q-155 0 -225 48t-70 149q0 178 281 262v88q-78 -92 -193.5 -128t-277.5 -36q-204 0 -295.5 77t-91.5 230q0 148 96 215.5t311 67.5h412q-20 78 -95.5 112.5t-213.5 34.5
q-113 0 -196.5 -24.5t-166.5 -77.5l-129 260q212 137 576 137q106 0 189 -11t159.5 -40t126.5 -77.5t79.5 -126t29.5 -181.5v-559h-84zM567 219q266 0 340 111v39h-379q-94 0 -94 -72q0 -78 133 -78z" />
    <glyph glyph-name="Cacute" unicode="&#x106;" horiz-adv-x="1771" 
d="M1313 1772l-484 -299l-116 141l426 401zM1729 332q-244 -369 -797 -369q-813 0 -813 694v70q0 692 813 692q126 0 231.5 -15.5t206.5 -52t185 -103.5t147 -163l-266 -225q-101 123 -219 177.5t-285 54.5q-79 0 -145 -11t-124.5 -37.5t-99.5 -67.5t-64.5 -103.5
t-23.5 -143.5v-76q0 -80 23.5 -142.5t64.5 -103.5t99.5 -67.5t124.5 -37.5t145 -11q177 0 301.5 55.5t216.5 196.5z" />
    <glyph glyph-name="cacute" unicode="&#x107;" horiz-adv-x="1449" 
d="M1147 1348l-483 -299l-117 141l426 401zM1321 150q-101 -106 -245 -146.5t-353 -40.5q-98 0 -183.5 14.5t-164.5 49.5t-135 89.5t-89.5 139.5t-33.5 193v63q0 108 33.5 192t91 138.5t140.5 89t175.5 49t202.5 14.5q183 0 316.5 -37t252.5 -135l-207 -229
q-64 60 -150.5 83t-203.5 23q-299 0 -299 -202v-33q0 -205 307 -205q236 0 367 119z" />
    <glyph glyph-name="Cdotaccent" unicode="&#x10a;" horiz-adv-x="1771" 
d="M887 1516q-98 0 -151.5 54t-53.5 152q0 95 53 145t152 50t155 -50.5t56 -144.5q0 -98 -56 -152t-155 -54zM1729 332q-244 -369 -797 -369q-813 0 -813 694v70q0 692 813 692q126 0 231.5 -15.5t206.5 -52t185 -103.5t147 -163l-266 -225q-101 123 -219 177.5t-285 54.5
q-79 0 -145 -11t-124.5 -37.5t-99.5 -67.5t-64.5 -103.5t-23.5 -143.5v-76q0 -80 23.5 -142.5t64.5 -103.5t99.5 -67.5t124.5 -37.5t145 -11q177 0 301.5 55.5t216.5 196.5z" />
    <glyph glyph-name="cdotaccent" unicode="&#x10b;" horiz-adv-x="1449" 
d="M723 1092q-98 0 -151.5 54t-53.5 152q0 95 53 145t152 50t155 -50.5t56 -144.5q0 -98 -56 -152t-155 -54zM1321 150q-101 -106 -245 -146.5t-353 -40.5q-98 0 -183.5 14.5t-164.5 49.5t-135 89.5t-89.5 139.5t-33.5 193v63q0 108 33.5 192t91 138.5t140.5 89t175.5 49
t202.5 14.5q183 0 316.5 -37t252.5 -135l-207 -229q-64 60 -150.5 83t-203.5 23q-299 0 -299 -202v-33q0 -205 307 -205q236 0 367 119z" />
    <glyph glyph-name="Ccaron" unicode="&#x10c;" horiz-adv-x="1771" 
d="M983 1473h-186l-389 403l116 139l367 -246l366 246l115 -139zM1450 543l279 -211q-244 -369 -797 -369q-813 0 -813 694v70q0 692 813 692q126 0 231.5 -15.5t206.5 -52t185 -103.5t147 -163l-266 -225q-101 123 -219 177.5t-285 54.5q-79 0 -145 -11t-124.5 -37.5
t-99.5 -67.5t-64.5 -103.5t-23.5 -143.5v-76q0 -80 23.5 -142.5t64.5 -103.5t99.5 -67.5t124.5 -37.5t145 -11q177 0 301.5 55.5t216.5 196.5z" />
    <glyph glyph-name="ccaron" unicode="&#x10d;" horiz-adv-x="1449" 
d="M817 1049h-186l-389 403l116 139l367 -245l367 245l114 -139zM776 260q236 0 367 119l178 -229q-101 -106 -245 -146.5t-353 -40.5q-98 0 -183.5 14.5t-164.5 49.5t-135 89.5t-89.5 139.5t-33.5 193v63q0 108 33.5 192t91 138.5t140.5 89t175.5 49t202.5 14.5
q183 0 316.5 -37t252.5 -135l-207 -229q-64 60 -150.5 83t-203.5 23q-299 0 -299 -202v-33q0 -205 307 -205z" />
    <glyph glyph-name="Dcaron" unicode="&#x10e;" horiz-adv-x="1892" 
d="M1049 1473h-187l-389 403l117 139l366 -246l367 246l115 -139zM1004 1382q387 0 578.5 -167t191.5 -492v-61q0 -662 -770 -662h-797v1382h797zM1417 659v66q0 180 -103 255t-310 75h-443v-727h443q208 0 310.5 74.5t102.5 256.5z" />
    <glyph glyph-name="dcaron" unicode="&#x10f;" horiz-adv-x="1882" 
d="M1718 1540l293 -53l-143 -561l-182 24zM1155 872v664h352v-1536h-293l-12 143q-139 -180 -504 -180q-110 0 -197 14.5t-160 49t-121.5 90t-75.5 139t-27 193.5v63q0 91 21.5 164.5t61 125.5t92 90t120 60.5t138.5 32.5t152 10q311 0 453 -123zM766 260q318 0 389 121v203
q-67 116 -389 116q-297 0 -297 -202v-33q0 -205 297 -205z" />
    <glyph glyph-name="Dcroat" unicode="&#x110;" horiz-adv-x="1908" 
d="M1004 1382q387 0 578.5 -167t191.5 -492v-61q0 -662 -770 -662h-797v549h-125v282h125v551h797zM1417 659v66q0 180 -103 255t-310 75h-443v-224h518v-282h-518v-221h443q208 0 310.5 74.5t102.5 256.5z" />
    <glyph glyph-name="dcroat" unicode="&#x111;" horiz-adv-x="1765" 
d="M1647 1411v-281h-140v-1130h-293l-12 143q-139 -180 -504 -180q-110 0 -197 14.5t-160 49t-121.5 90t-75.5 139t-27 193.5v63q0 91 21.5 164.5t61 125.5t92 90t120 60.5t138.5 32.5t152 10q311 0 453 -123v258h-690v281h690v125h352v-125h140zM766 260q318 0 389 121v203
q-67 116 -389 116q-297 0 -297 -202v-33q0 -205 297 -205z" />
    <glyph glyph-name="Emacron" unicode="&#x112;" horiz-adv-x="1662" 
d="M1401 1864v-281h-1024v281h1024zM561 322h1008v-322h-1362v1382h1347v-319h-993v-225h776v-279h-776v-237z" />
    <glyph glyph-name="emacron" unicode="&#x113;" horiz-adv-x="1411" 
d="M1237 1440v-281h-1024v281h1024zM1333 526v-104h-862q9 -90 73.5 -126t196.5 -36q146 0 236 19t153 69l193 -225q-105 -86 -244.5 -123t-343.5 -37q-108 0 -195.5 12t-168.5 44t-135 84t-86.5 136t-32.5 195v92q0 469 610 469q84 0 156 -8.5t142.5 -28.5t124.5 -55.5
t96 -86t64.5 -124.5t22.5 -166zM727 700q-118 0 -184.5 -33.5t-73.5 -119.5h512q-7 86 -72.5 119.5t-181.5 33.5z" />
    <glyph glyph-name="Edotaccent" unicode="&#x116;" horiz-adv-x="1662" 
d="M887 1516q-98 0 -151.5 54t-53.5 152q0 95 53 145t152 50t155 -50.5t56 -144.5q0 -98 -56 -152t-155 -54zM561 322h1008v-322h-1362v1382h1347v-319h-993v-225h776v-279h-776v-237z" />
    <glyph glyph-name="edotaccent" unicode="&#x117;" horiz-adv-x="1411" 
d="M721 1092q-98 0 -151.5 54t-53.5 152q0 95 53 145t152 50t155 -50.5t56 -144.5q0 -98 -56 -152t-155 -54zM1333 526v-104h-862q9 -90 73.5 -126t196.5 -36q146 0 236 19t153 69l193 -225q-105 -86 -244.5 -123t-343.5 -37q-108 0 -195.5 12t-168.5 44t-135 84t-86.5 136
t-32.5 195v92q0 469 610 469q84 0 156 -8.5t142.5 -28.5t124.5 -55.5t96 -86t64.5 -124.5t22.5 -166zM727 700q-118 0 -184.5 -33.5t-73.5 -119.5h512q-7 86 -72.5 119.5t-181.5 33.5z" />
    <glyph glyph-name="Eogonek" unicode="&#x118;" horiz-adv-x="1662" 
d="M1569 0q-136 -33 -214.5 -80.5t-78.5 -93.5q0 -47 92 -47q96 0 162 22l10 -213q-81 -24 -244 -24q-155 0 -225 46.5t-70 147.5q0 148 187 242h-981v1382h1347v-319h-993v-225h776v-279h-776v-237h1008v-322z" />
    <glyph glyph-name="eogonek" unicode="&#x119;" horiz-adv-x="1411" 
d="M1333 526v-104h-862q9 -90 73.5 -126t196.5 -36q146 0 236 19t153 69l193 -225q-110 -91 -268 -129q-109 -38 -161 -72.5t-52 -73.5q0 -47 92 -47q93 0 162 23l10 -213q-91 -27 -244 -27q-155 0 -225 48t-70 149q0 104 107 184q-98 3 -177.5 18t-152 48.5t-121.5 85.5
t-77.5 132t-28.5 185v92q0 469 610 469q84 0 156 -8.5t142.5 -28.5t124.5 -55.5t96 -86t64.5 -124.5t22.5 -166zM727 700q-118 0 -184.5 -33.5t-73.5 -119.5h512q-7 86 -72.5 119.5t-181.5 33.5z" />
    <glyph glyph-name="Ecaron" unicode="&#x11a;" horiz-adv-x="1662" 
d="M983 1473h-186l-389 403l116 139l367 -246l366 246l115 -139zM561 322h1008v-322h-1362v1382h1347v-319h-993v-225h776v-279h-776v-237z" />
    <glyph glyph-name="ecaron" unicode="&#x11b;" horiz-adv-x="1411" 
d="M817 1049h-186l-389 403l116 139l367 -245l367 245l114 -139zM1333 526v-104h-862q9 -90 73.5 -126t196.5 -36q146 0 236 19t153 69l193 -225q-105 -86 -244.5 -123t-343.5 -37q-108 0 -195.5 12t-168.5 44t-135 84t-86.5 136t-32.5 195v92q0 469 610 469q84 0 156 -8.5
t142.5 -28.5t124.5 -55.5t96 -86t64.5 -124.5t22.5 -166zM727 700q-118 0 -184.5 -33.5t-73.5 -119.5h512q-7 86 -72.5 119.5t-181.5 33.5z" />
    <glyph glyph-name="Gbreve" unicode="&#x11e;" horiz-adv-x="1830" 
d="M907 1464q-127 0 -226 36.5t-161 101.5t-93.5 151t-31.5 189h318q0 -56 18 -103t63.5 -81t112.5 -34q51 0 89.5 19t59 51.5t30.5 69t10 78.5h317q0 -103 -30.5 -189t-91.5 -151t-159 -101.5t-225 -36.5zM758 776h952v-612q-127 -94 -324 -147.5t-452 -53.5
q-815 0 -815 694v70q0 692 813 692q244 0 422 -60.5t336 -203.5l-224 -278q-197 215 -534 215q-79 0 -145 -11t-124.5 -37.5t-99.5 -67.5t-64.5 -103.5t-23.5 -143.5v-76q0 -100 36 -171.5t105 -112.5t159 -59.5t208 -18.5q261 0 371 69v138h-596v278z" />
    <glyph glyph-name="gbreve" unicode="&#x11f;" horiz-adv-x="1472" 
d="M768 1040q-127 0 -226 36.5t-161 101.5t-93.5 151t-31.5 189h317q0 -88 48.5 -153t146.5 -65t143 64t45 154h318q0 -103 -30.5 -189t-91.5 -151t-159 -101.5t-225 -36.5zM1001 958h332v-854q0 -97 -17 -175t-46 -133.5t-75.5 -96.5t-99 -66.5t-123 -40.5t-140.5 -20.5
t-158 -5.5q-197 0 -334.5 40.5t-206.5 114.5l117 252q71 -59 172 -96t209 -37q40 0 69.5 1.5t68.5 7.5t66.5 16.5t57 30t47.5 46.5t29.5 67t11.5 91v23q-141 -111 -403 -111q-82 0 -150.5 11.5t-135 43t-111.5 82t-73 133t-28 191.5v62q0 105 28.5 186.5t75 132t113 83.5
t135.5 45.5t148 12.5q332 0 421 -159v122zM694 293q124 0 201 36t86 111v129q-27 133 -287 133q-264 0 -264 -188v-35q0 -96 72.5 -141t191.5 -45z" />
    <glyph glyph-name="Gdotaccent" unicode="&#x120;" horiz-adv-x="1830" 
d="M901 1516q-98 0 -151.5 54t-53.5 152q0 95 53 145t152 50t155 -50.5t56 -144.5q0 -98 -56 -152t-155 -54zM758 776h952v-612q-127 -94 -324 -147.5t-452 -53.5q-815 0 -815 694v70q0 692 813 692q244 0 422 -60.5t336 -203.5l-224 -278q-197 215 -534 215q-79 0 -145 -11
t-124.5 -37.5t-99.5 -67.5t-64.5 -103.5t-23.5 -143.5v-76q0 -100 36 -171.5t105 -112.5t159 -59.5t208 -18.5q261 0 371 69v138h-596v278z" />
    <glyph glyph-name="gdotaccent" unicode="&#x121;" horiz-adv-x="1472" 
d="M762 1092q-98 0 -151.5 54t-53.5 152q0 95 53 145t152 50t155 -50.5t56 -144.5q0 -98 -56 -152t-155 -54zM1001 958h332v-854q0 -97 -17 -175t-46 -133.5t-75.5 -96.5t-99 -66.5t-123 -40.5t-140.5 -20.5t-158 -5.5q-197 0 -334.5 40.5t-206.5 114.5l117 252
q71 -59 172 -96t209 -37q40 0 69.5 1.5t68.5 7.5t66.5 16.5t57 30t47.5 46.5t29.5 67t11.5 91v23q-141 -111 -403 -111q-82 0 -150.5 11.5t-135 43t-111.5 82t-73 133t-28 191.5v62q0 105 28.5 186.5t75 132t113 83.5t135.5 45.5t148 12.5q332 0 421 -159v122zM694 293
q124 0 201 36t86 111v129q-27 133 -287 133q-264 0 -264 -188v-35q0 -96 72.5 -141t191.5 -45z" />
    <glyph glyph-name="uni0122" unicode="&#x122;" horiz-adv-x="1830" 
d="M758 776h952v-612q-127 -94 -324 -147.5t-452 -53.5q-815 0 -815 694v70q0 692 813 692q244 0 422 -60.5t336 -203.5l-224 -278q-197 215 -534 215q-79 0 -145 -11t-124.5 -37.5t-99.5 -67.5t-64.5 -103.5t-23.5 -143.5v-76q0 -100 36 -171.5t105 -112.5t159 -59.5
t208 -18.5q261 0 371 69v138h-596v278zM893 -92q144 0 227.5 -65.5t83.5 -186.5q0 -96 -45 -163t-123.5 -98.5t-185 -41t-229.5 9.5l26 178q130 -24 207 -12.5t108 47t31 102.5v5q-39 -66 -155 -66q-78 0 -127 32t-49 97q0 75 55.5 118.5t175.5 43.5z" />
    <glyph glyph-name="uni0123" unicode="&#x123;" horiz-adv-x="1472" 
d="M778 1063q-145 0 -229 65.5t-84 186.5q0 96 45 163t124 99t185.5 41.5t229.5 -8.5l-25 -180q-192 31 -270 -2.5t-78 -135.5v-6q38 68 158 68q77 0 126.5 -32t49.5 -97q0 -75 -56 -118.5t-176 -43.5zM1001 958h332v-854q0 -97 -17 -175t-46 -133.5t-75.5 -96.5t-99 -66.5
t-123 -40.5t-140.5 -20.5t-158 -5.5q-197 0 -334.5 40.5t-206.5 114.5l117 252q71 -59 172 -96t209 -37q40 0 69.5 1.5t68.5 7.5t66.5 16.5t57 30t47.5 46.5t29.5 67t11.5 91v23q-141 -111 -403 -111q-82 0 -150.5 11.5t-135 43t-111.5 82t-73 133t-28 191.5v62
q0 105 28.5 186.5t75 132t113 83.5t135.5 45.5t148 12.5q332 0 421 -159v122zM694 293q124 0 201 36t86 111v129q-27 133 -287 133q-264 0 -264 -188v-35q0 -96 72.5 -141t191.5 -45z" />
    <glyph glyph-name="Hbar" unicode="&#x126;" horiz-adv-x="1937" 
d="M1821 1165v-258h-111v-907h-354v424h-774v-424h-357v907h-108v258h108v217h357v-217h774v217h354v-217h111zM1356 743v164h-774v-164h774z" />
    <glyph glyph-name="hbar" unicode="&#x127;" horiz-adv-x="1228" 
d="M950 995q71 0 132.5 -11t122 -40.5t103 -76t69 -124.5t26.5 -180v-563h-352v471q0 119 -61.5 166t-166.5 47q-91 0 -168 -29.5t-120 -76.5v-578h-353v1124h-110v283h110v129h326v-129h496v-283h-496v-272q73 68 187 105.5t255 37.5z" />
    <glyph glyph-name="Imacron" unicode="&#x12a;" horiz-adv-x="768" 
d="M897 1583h-1024v281h1024v-281zM207 0v1382h354v-1382h-354z" />
    <glyph glyph-name="imacron" unicode="&#x12b;" horiz-adv-x="745" 
d="M885 1159h-1024v281h1024v-281zM197 0v958h352v-958h-352z" />
    <glyph glyph-name="Iogonek" unicode="&#x12e;" horiz-adv-x="768" 
d="M399 -217q96 0 162 22l10 -213q-81 -24 -243 -24q-155 0 -225 46.5t-70 147.5q0 146 178 238h-4v1382h354v-1333l39 -45q-136 -33 -214.5 -80.5t-78.5 -93.5q0 -47 92 -47z" />
    <glyph glyph-name="iogonek" unicode="&#x12f;" horiz-adv-x="745" 
d="M371 1092q-98 0 -151.5 54t-53.5 152q0 95 53 145t152 50t155 -50.5t56 -144.5q0 -98 -56 -152t-155 -54zM197 0v958h352v-958q-153 -48 -223 -87.5t-70 -84.5q0 -47 92 -47q96 0 162 22l10 -213q-88 -26 -244 -26q-155 0 -224.5 47.5t-69.5 148.5q0 156 215 240z" />
    <glyph glyph-name="Idotaccent" unicode="&#x130;" horiz-adv-x="768" 
d="M381 1516q-98 0 -151.5 54t-53.5 152q0 95 53 145t152 50t155 -50.5t56 -144.5q0 -98 -56 -152t-155 -54zM207 0v1382h354v-1382h-354z" />
    <glyph glyph-name="dotlessi" unicode="&#x131;" horiz-adv-x="745" 
d="M197 0v958h352v-958h-352z" />
    <glyph glyph-name="uni0136" unicode="&#x136;" horiz-adv-x="1785" 
d="M1747 1380l-625 -546l604 -834h-446l-426 600l-293 -256v-344h-354v1382h354v-622l737 620h449zM938 -92q144 0 227.5 -65.5t83.5 -186.5q0 -96 -45 -163t-123.5 -98.5t-185 -41t-229.5 9.5l26 178q130 -24 207 -12.5t108 47t31 102.5v5q-39 -66 -155 -66q-78 0 -127 32
t-49 97q0 75 55.5 118.5t175.5 43.5z" />
    <glyph glyph-name="uni0137" unicode="&#x137;" horiz-adv-x="1456" 
d="M530 217v-217h-352v1524h352v-901l406 335h463l-406 -348l416 -610h-434l-248 385zM717 -92q144 0 227.5 -65.5t83.5 -186.5q0 -96 -45 -163t-124 -98.5t-185.5 -41t-229.5 9.5l27 178q130 -24 207 -12.5t108 47t31 102.5v5q-39 -66 -155 -66q-78 0 -127.5 32t-49.5 97
q0 75 56 118.5t176 43.5z" />
    <glyph glyph-name="Lacute" unicode="&#x139;" horiz-adv-x="1492" 
d="M807 1772l-483 -299l-117 141l426 401zM561 328h862v-328h-1216v1382h354v-1054z" />
    <glyph glyph-name="lacute" unicode="&#x13a;" horiz-adv-x="718" 
d="M782 1925l-483 -299l-117 141l426 402zM182 0v1536h353v-1536h-353z" />
    <glyph glyph-name="uni013B" unicode="&#x13b;" horiz-adv-x="1492" 
d="M561 328h862v-328h-1216v1382h354v-1054zM735 -92q144 0 228 -65.5t84 -186.5q0 -96 -45 -163t-124 -98.5t-185.5 -41t-229.5 9.5l26 178q130 -24 207 -12.5t108.5 47t31.5 102.5v5q-39 -66 -156 -66q-78 0 -127 32t-49 97q0 75 55.5 118.5t175.5 43.5z" />
    <glyph glyph-name="uni013C" unicode="&#x13c;" horiz-adv-x="718" 
d="M535 1536v-1536h-353v1536h353zM362 -92q144 0 228 -65.5t84 -186.5q0 -96 -45 -163t-124 -98.5t-185.5 -41t-229.5 9.5l27 178q130 -24 207 -12.5t108 47t31 102.5v5q-39 -66 -156 -66q-78 0 -127 32t-49 97q0 75 55.5 118.5t175.5 43.5z" />
    <glyph glyph-name="Lcaron" unicode="&#x13d;" horiz-adv-x="1492" 
d="M1231 1333l-144 -559l-182 23l33 589zM561 328h862v-328h-1216v1382h354v-1054z" />
    <glyph glyph-name="lcaron" unicode="&#x13e;" horiz-adv-x="800" 
d="M983 1489l-143 -561l-183 24l31 590zM182 0v1536h353v-1536h-353z" />
    <glyph glyph-name="Lslash" unicode="&#x141;" horiz-adv-x="1492" 
d="M561 328h862v-328h-1216v416l-184 -101l-136 246l320 176v645h354v-450l361 198l137 -245l-498 -275v-282z" />
    <glyph glyph-name="lslash" unicode="&#x142;" horiz-adv-x="1042" 
d="M1118 948l-422 -231v-717h-352v522l-260 -143l-135 246l395 217v694h352v-500l285 158z" />
    <glyph glyph-name="Nacute" unicode="&#x143;" horiz-adv-x="1873" 
d="M1360 1772l-483 -299l-117 141l426 401zM1319 1382h348v-1382h-356l-758 885v-885h-346v1382h354l758 -878v878z" />
    <glyph glyph-name="nacute" unicode="&#x144;" horiz-adv-x="1591" 
d="M1245 1348l-483 -299l-117 141l426 401zM963 995q454 0 454 -432v-563h-352v471q0 119 -61 166t-166 47q-92 0 -169 -30t-120 -76v-578h-352v958h323v-106q73 68 187.5 105.5t255.5 37.5z" />
    <glyph glyph-name="uni0145" unicode="&#x145;" horiz-adv-x="1873" 
d="M1319 1382h348v-1382h-356l-758 885v-885h-346v1382h354l758 -878v878zM926 -92q144 0 227.5 -65.5t83.5 -186.5q0 -96 -45 -163t-124 -98.5t-185.5 -41t-229.5 9.5l27 178q130 -24 207 -12.5t108 47t31 102.5v5q-39 -66 -156 -66q-78 0 -127 32t-49 97q0 75 56 118.5
t176 43.5z" />
    <glyph glyph-name="uni0146" unicode="&#x146;" horiz-adv-x="1591" 
d="M963 995q454 0 454 -432v-563h-352v471q0 119 -61 166t-166 47q-92 0 -169 -30t-120 -76v-578h-352v958h323v-106q73 68 187.5 105.5t255.5 37.5zM784 -92q144 0 228 -65.5t84 -186.5q0 -96 -45 -163t-124 -98.5t-185.5 -41t-229.5 9.5l27 178q130 -24 207 -12.5t108 47
t31 102.5v5q-39 -66 -156 -66q-78 0 -127 32t-49 97q0 75 55.5 118.5t175.5 43.5z" />
    <glyph glyph-name="Ncaron" unicode="&#x147;" horiz-adv-x="1873" 
d="M1030 1473h-186l-389 403l116 139l367 -246l367 246l114 -139zM1319 1382h348v-1382h-356l-758 885v-885h-346v1382h354l758 -878v878z" />
    <glyph glyph-name="ncaron" unicode="&#x148;" horiz-adv-x="1591" 
d="M915 1049h-186l-389 403l117 139l366 -245l367 245l115 -139zM963 995q454 0 454 -432v-563h-352v471q0 119 -61 166t-166 47q-92 0 -169 -30t-120 -76v-578h-352v958h323v-106q73 68 187.5 105.5t255.5 37.5z" />
    <glyph glyph-name="Eng" unicode="&#x14a;" horiz-adv-x="1873" 
d="M1319 1382h348v-1175q0 -336 -151.5 -496t-458.5 -160q-283 0 -477 138l155 278q77 -66 142 -90t153 -24q101 0 167.5 35.5t98.5 123.5l-743 844v-856h-346v1382h354l760 -868z" />
    <glyph glyph-name="eng" unicode="&#x14b;" horiz-adv-x="1591" 
d="M963 995q454 0 454 -432v-442q0 -136 -32.5 -237t-88 -163.5t-140.5 -100.5t-177.5 -52t-212.5 -14l-29 292q80 0 136 11.5t101.5 40.5t68 83.5t22.5 135.5v354q0 119 -61 166t-166 47q-92 0 -169 -30t-120 -76v-578h-352v958h323v-106q73 68 187.5 105.5t255.5 37.5z
" />
    <glyph glyph-name="Omacron" unicode="&#x14c;" horiz-adv-x="1925" 
d="M1475 1583h-1024v281h1024v-281zM961 -37q-421 0 -631.5 176t-210.5 518v70q0 341 210.5 516.5t631.5 175.5q422 0 633.5 -175.5t211.5 -516.5v-70q0 -342 -211.5 -518t-633.5 -176zM961 291q83 0 153.5 11t133.5 37.5t107 67.5t69.5 103.5t25.5 142.5v76
q0 81 -25.5 143.5t-69.5 103.5t-107 67.5t-133.5 37.5t-153.5 11q-82 0 -151.5 -11t-132.5 -37.5t-107 -67.5t-69.5 -103.5t-25.5 -143.5v-76q0 -99 38.5 -171.5t107.5 -113t153 -59t187 -18.5z" />
    <glyph glyph-name="omacron" unicode="&#x14d;" horiz-adv-x="1533" 
d="M1280 1159h-1024v281h1024v-281zM766 -37q-108 0 -200 14.5t-176.5 49.5t-143.5 89.5t-94 139t-35 193.5v63q0 108 35 192.5t94 138.5t143.5 88.5t176.5 49t200 14.5t200.5 -14.5t177 -49t144 -88.5t94.5 -138.5t35 -192.5v-63q0 -109 -35 -193.5t-94.5 -139t-144 -89.5
t-177 -49.5t-200.5 -14.5zM766 260q299 0 299 205v33q0 202 -299 202q-297 0 -297 -202v-33q0 -205 297 -205z" />
    <glyph glyph-name="Ohungarumlaut" unicode="&#x150;" horiz-adv-x="1925" 
d="M1075 1915l-366 -438l-154 90l274 518zM1653 1792l-461 -338l-127 127l391 434zM961 -37q-421 0 -631.5 176t-210.5 518v70q0 341 210.5 516.5t631.5 175.5q422 0 633.5 -175.5t211.5 -516.5v-70q0 -342 -211.5 -518t-633.5 -176zM961 291q83 0 153.5 11t133.5 37.5
t107 67.5t69.5 103.5t25.5 142.5v76q0 81 -25.5 143.5t-69.5 103.5t-107 67.5t-133.5 37.5t-153.5 11q-82 0 -151.5 -11t-132.5 -37.5t-107 -67.5t-69.5 -103.5t-25.5 -143.5v-76q0 -99 38.5 -171.5t107.5 -113t153 -59t187 -18.5z" />
    <glyph glyph-name="ohungarumlaut" unicode="&#x151;" horiz-adv-x="1533" 
d="M881 1491l-367 -438l-154 90l275 518zM1458 1368l-461 -338l-127 127l392 434zM766 -37q-108 0 -200 14.5t-176.5 49.5t-143.5 89.5t-94 139t-35 193.5v63q0 108 35 192.5t94 138.5t143.5 88.5t176.5 49t200 14.5t200.5 -14.5t177 -49t144 -88.5t94.5 -138.5t35 -192.5
v-63q0 -109 -35 -193.5t-94.5 -139t-144 -89.5t-177 -49.5t-200.5 -14.5zM766 260q299 0 299 205v33q0 202 -299 202q-297 0 -297 -202v-33q0 -205 297 -205z" />
    <glyph glyph-name="OE" unicode="&#x152;" horiz-adv-x="2906" 
d="M1804 322h1006v-322h-1362v72q-184 -111 -483 -111q-846 0 -846 696v70q0 694 846 694q300 0 483 -110v71h1350v-319h-994v-225h774v-279h-774v-237zM1446 653v76q0 100 -39 173t-108 113.5t-151.5 59.5t-182.5 19q-85 0 -156.5 -11.5t-134 -38t-106 -67.5t-68.5 -104
t-25 -144v-76q0 -100 37.5 -172t106 -113t154 -60t192.5 -19q79 0 147 11.5t130.5 38t107 67.5t70.5 104t26 143z" />
    <glyph glyph-name="oe" unicode="&#x153;" horiz-adv-x="2361" 
d="M2281 526v-104h-860q9 -90 73 -126t196 -36q146 0 236 19t153 69l192 -225q-105 -86 -244.5 -123t-343.5 -37q-309 0 -456 107q-166 -107 -461 -107q-108 0 -200 14.5t-176.5 49.5t-143.5 89.5t-94 139t-35 193.5v63q0 108 35 192.5t94 138.5t143.5 88.5t176.5 49
t200 14.5q297 0 465 -108q151 108 444 108q84 0 156 -8.5t142.5 -28.5t124.5 -55.5t96 -86t64.5 -124.5t22.5 -166zM1065 465v33q0 202 -299 202q-297 0 -297 -202v-33q0 -205 297 -205q299 0 299 205zM1675 700q-117 0 -183 -33.5t-73 -119.5h510q-7 86 -72.5 119.5
t-181.5 33.5z" />
    <glyph glyph-name="Racute" unicode="&#x154;" horiz-adv-x="1734" 
d="M1282 1772l-483 -299l-117 141l426 401zM1272 0l-328 422h-391v-422h-346v1382h878q135 0 232.5 -23.5t169.5 -77.5t107.5 -146t35.5 -224q0 -176 -78 -291t-227 -163l365 -457h-418zM553 1063v-330h504q217 0 217 178q0 86 -53.5 119t-163.5 33h-504z" />
    <glyph glyph-name="racute" unicode="&#x155;" horiz-adv-x="1169" 
d="M1008 1348l-484 -299l-116 141l426 401zM862 995q181 0 305 -106l-170 -250q-102 66 -206 66q-85 0 -148 -42.5t-94 -121.5v-541h-352v958h325v-131q55 87 145 127.5t195 40.5z" />
    <glyph glyph-name="uni0156" unicode="&#x156;" horiz-adv-x="1734" 
d="M1325 457l365 -457h-418l-328 422h-391v-422h-346v1382h878q135 0 232.5 -23.5t169.5 -77.5t107.5 -146t35.5 -224q0 -176 -78 -291t-227 -163zM553 1063v-330h504q217 0 217 178q0 86 -53.5 119t-163.5 33h-504zM848 -92q144 0 227.5 -65.5t83.5 -186.5q0 -96 -45 -163
t-124 -98.5t-185.5 -41t-229.5 9.5l27 178q130 -24 207 -12.5t108 47t31 102.5v5q-39 -66 -155 -66q-78 0 -127.5 32t-49.5 97q0 75 56 118.5t176 43.5z" />
    <glyph glyph-name="uni0157" unicode="&#x157;" horiz-adv-x="1169" 
d="M862 995q181 0 305 -106l-170 -250q-102 66 -206 66q-85 0 -148 -42.5t-94 -121.5v-541h-352v958h325v-131q55 87 145 127.5t195 40.5zM393 -92q144 0 228 -65.5t84 -186.5q0 -96 -45 -163t-124 -98.5t-185.5 -41t-229.5 9.5l26 178q130 -24 207 -12.5t108.5 47
t31.5 102.5v5q-39 -66 -156 -66q-78 0 -127 32t-49 97q0 75 55.5 118.5t175.5 43.5z" />
    <glyph glyph-name="Rcaron" unicode="&#x158;" horiz-adv-x="1734" 
d="M952 1473h-186l-389 403l117 139l366 -246l367 246l114 -139zM1272 0l-328 422h-391v-422h-346v1382h878q135 0 232.5 -23.5t169.5 -77.5t107.5 -146t35.5 -224q0 -176 -78 -291t-227 -163l365 -457h-418zM553 1063v-330h504q217 0 217 178q0 86 -53.5 119t-163.5 33
h-504z" />
    <glyph glyph-name="rcaron" unicode="&#x159;" horiz-adv-x="1169" 
d="M678 1049h-186l-390 403l117 139l367 -245l366 245l115 -139zM862 995q181 0 305 -106l-170 -250q-102 66 -206 66q-85 0 -148 -42.5t-94 -121.5v-541h-352v958h325v-131q55 87 145 127.5t195 40.5z" />
    <glyph glyph-name="Sacute" unicode="&#x15a;" horiz-adv-x="1765" 
d="M1305 1772l-484 -299l-116 141l425 401zM932 -37q-300 0 -495 53.5t-345 180.5l166 290q118 -100 276 -152t381 -52q192 0 296 33t104 98q0 54 -45.5 76.5t-165.5 33.5l-447 33q-117 8 -208.5 34t-151 64.5t-98 90t-54.5 108t-16 121.5q0 222 183 333t565 111
q215 0 403 -39.5t371 -146.5l-133 -299q-263 170 -670 170q-140 0 -221.5 -14.5t-111.5 -40t-30 -66.5q0 -53 55.5 -79t202.5 -38l316 -22q156 -10 264 -33.5t188.5 -69.5t119 -120t38.5 -179q0 -124 -52 -217t-150.5 -150t-231.5 -84.5t-303 -27.5z" />
    <glyph glyph-name="sacute" unicode="&#x15b;" horiz-adv-x="1331" 
d="M1087 1348l-483 -299l-117 141l426 401zM645 -37q-364 0 -559 119l70 254q70 -53 204 -86t295 -33q121 0 186.5 18t65.5 64q0 53 -98 59l-297 13q-115 4 -198 27.5t-129.5 63.5t-67.5 88t-21 107q0 178 147.5 258t426.5 80q176 0 309.5 -23.5t245.5 -86.5l-127 -230
q-136 84 -416 84q-250 0 -250 -69q0 -58 127 -68l313 -14q92 -5 158 -20.5t115.5 -47t73.5 -84t24 -127.5q0 -346 -598 -346z" />
    <glyph glyph-name="Scedilla" unicode="&#x15e;" horiz-adv-x="1765" 
d="M932 -37h-8l-9 -29q155 2 228.5 -42t73.5 -142q0 -56 -25 -95t-71.5 -59t-100 -28t-123.5 -8q-91 0 -157 10.5t-87 19.5l35 156q72 -25 166 -25q123 0 123 39q0 42 -240 37l29 170q-225 12 -385 66.5t-289 163.5l166 290q118 -100 276 -152t381 -52q192 0 296 33t104 98
q0 54 -45.5 76.5t-165.5 33.5l-447 33q-117 8 -208.5 34t-151 64.5t-98 90t-54.5 108t-16 121.5q0 222 183 333t565 111q215 0 403 -39.5t371 -146.5l-133 -299q-263 170 -670 170q-140 0 -221.5 -14.5t-111.5 -40t-30 -66.5q0 -53 55.5 -79t202.5 -38l316 -22
q156 -10 264 -33.5t188.5 -69.5t119 -120t38.5 -179q0 -124 -52 -217t-150.5 -150t-231.5 -84.5t-303 -27.5z" />
    <glyph glyph-name="scedilla" unicode="&#x15f;" horiz-adv-x="1331" 
d="M1243 309q0 -92 -42 -159t-118 -105.5t-167.5 -57.5t-204.5 -22l-11 -43q154 3 227.5 -41t73.5 -143q0 -56 -24 -94.5t-69.5 -59t-98 -29t-121.5 -8.5q-93 0 -162 11.5t-88 21.5l35 154q66 -23 174 -23q115 0 115 39q0 40 -240 35l31 180q-293 12 -467 117l70 254
q70 -53 204 -86t295 -33q121 0 186.5 18t65.5 64q0 53 -98 59l-297 13q-115 4 -198 27.5t-129.5 63.5t-67.5 88t-21 107q0 178 147.5 258t426.5 80q176 0 309.5 -23.5t245.5 -86.5l-127 -230q-136 84 -416 84q-250 0 -250 -69q0 -58 127 -68l313 -14q92 -5 158 -20.5
t115.5 -47t73.5 -84t24 -127.5z" />
    <glyph glyph-name="Scaron" unicode="&#x160;" horiz-adv-x="1765" 
d="M975 1473h-187l-389 403l117 139l367 -246l366 246l115 -139zM1059 844q156 -10 264 -33.5t188.5 -69.5t119 -120t38.5 -179q0 -124 -52 -217t-150.5 -150t-231.5 -84.5t-303 -27.5q-300 0 -495 53.5t-345 180.5l166 290q118 -100 276 -152t381 -52q192 0 296 33t104 98
q0 54 -45.5 76.5t-165.5 33.5l-447 33q-117 8 -208.5 34t-151 64.5t-98 90t-54.5 108t-16 121.5q0 222 183 333t565 111q215 0 403 -39.5t371 -146.5l-133 -299q-263 170 -670 170q-140 0 -221.5 -14.5t-111.5 -40t-30 -66.5q0 -53 55.5 -79t202.5 -38z" />
    <glyph glyph-name="scaron" unicode="&#x161;" horiz-adv-x="1331" 
d="M758 1049h-187l-389 403l117 139l367 -245l366 245l115 -139zM872 588q92 -5 158 -20.5t115.5 -47t73.5 -84t24 -127.5q0 -346 -598 -346q-364 0 -559 119l70 254q70 -53 204 -86t295 -33q121 0 186.5 18t65.5 64q0 53 -98 59l-297 13q-115 4 -198 27.5t-129.5 63.5
t-67.5 88t-21 107q0 178 147.5 258t426.5 80q176 0 309.5 -23.5t245.5 -86.5l-127 -230q-136 84 -416 84q-250 0 -250 -69q0 -58 127 -68z" />
    <glyph glyph-name="uni0162" unicode="&#x162;" horiz-adv-x="1564" 
d="M961 0h-127l-17 -66q154 2 227.5 -42t73.5 -142q0 -45 -17 -79.5t-45.5 -55t-70.5 -33.5t-86.5 -17.5t-99.5 -4.5q-91 0 -157 10.5t-87 19.5l35 156q72 -25 166 -25q123 0 123 39q0 42 -240 37l35 203h-70v1063h-557v319h1469v-319h-555v-1063z" />
    <glyph glyph-name="uni0163" unicode="&#x163;" horiz-adv-x="1331" 
d="M750 -82q154 3 227.5 -41t73.5 -143q0 -56 -24.5 -94.5t-69.5 -59t-98 -29t-122 -8.5q-93 0 -162 11.5t-88 21.5l35 154q66 -23 174 -23q115 0 115 39q0 40 -240 35l33 196q-83 15 -146 48t-112.5 92t-75.5 153.5t-26 223.5v184h-144v280h144v256h352v-256h606v-280h-606
v-156q0 -80 17.5 -134.5t51 -82t72 -38.5t90.5 -11q170 0 328 84l117 -258q-71 -56 -202 -87.5t-282 -31.5h-26z" />
    <glyph glyph-name="Tcaron" unicode="&#x164;" horiz-adv-x="1564" 
d="M874 1473h-186l-389 403l117 139l366 -246l367 246l115 -139zM1516 1382v-319h-555v-1063h-357v1063h-557v319h1469z" />
    <glyph glyph-name="tcaron" unicode="&#x165;" horiz-adv-x="1331" 
d="M1085 1589l-143 -561l-180 25l31 587zM1155 340l117 -258q-71 -56 -202 -87.5t-282 -31.5q-70 0 -126.5 5.5t-114 21t-102 41t-83.5 66t-64 95.5t-39.5 131.5t-14.5 170.5v184h-144v280h144v256h352v-256h606v-280h-606v-156q0 -80 17.5 -134.5t51 -82t72 -38.5t90.5 -11
q170 0 328 84z" />
    <glyph glyph-name="Tbar" unicode="&#x166;" horiz-adv-x="1564" 
d="M1516 1063h-555v-217h409v-281h-409v-565h-357v565h-416v281h416v217h-557v319h1469v-319z" />
    <glyph glyph-name="tbar" unicode="&#x167;" horiz-adv-x="1331" 
d="M1194 322l82 -281q-80 -35 -204.5 -56.5t-258.5 -21.5q-103 0 -180.5 11t-151.5 42t-122 83.5t-79 140t-36 206.5h-144v162h144v125h-144v225h144v256h354v-256h604v-225h-604v-125h557v-162h-553q16 -109 78 -149.5t168 -40.5q185 0 346 66z" />
    <glyph glyph-name="Umacron" unicode="&#x16a;" horiz-adv-x="1759" 
d="M1393 1583h-1024v281h1024v-281zM874 -37q-370 0 -553.5 181.5t-183.5 547.5v690h357v-692q0 -113 28 -193t81.5 -124t119 -63t151.5 -19q66 0 121.5 11.5t106.5 40t86.5 72.5t56.5 114t21 161v692h356v-690q0 -366 -186 -547.5t-562 -181.5z" />
    <glyph glyph-name="umacron" unicode="&#x16b;" horiz-adv-x="1591" 
d="M1307 1440v-281h-1024v281h1024zM1055 958h352v-960h-326v106q-73 -68 -186 -105.5t-252 -37.5q-59 0 -111 8t-105 26t-94.5 51t-74.5 79t-50.5 114.5t-17.5 153.5v565h353v-473q0 -118 60.5 -164.5t166.5 -46.5q90 0 166.5 30t118.5 75v579z" />
    <glyph glyph-name="Uring" unicode="&#x16e;" horiz-adv-x="1759" 
d="M881 1464q-467 0 -467 291v14q0 289 467 289q245 0 351.5 -76t106.5 -213v-14q0 -291 -458 -291zM881 1679q202 0 202 78v8q0 38 -45 58t-157 20q-209 0 -209 -78v-8q0 -78 209 -78zM874 -37q-370 0 -553.5 181.5t-183.5 547.5v690h357v-692q0 -113 28 -193t81.5 -124
t119 -63t151.5 -19q66 0 121.5 11.5t106.5 40t86.5 72.5t56.5 114t21 161v692h356v-690q0 -366 -186 -547.5t-562 -181.5z" />
    <glyph glyph-name="uring" unicode="&#x16f;" horiz-adv-x="1591" 
d="M797 1073q-229 0 -348 78.5t-119 210.5v14q0 132 119 210.5t348 78.5q227 0 342.5 -78t115.5 -211v-14q0 -133 -115.5 -211t-342.5 -78zM588 1372v-6q0 -80 209 -80q202 0 202 80v6q0 39 -44.5 58.5t-157.5 19.5q-114 0 -161.5 -19.5t-47.5 -58.5zM1055 958h352v-960
h-326v106q-73 -68 -186 -105.5t-252 -37.5q-59 0 -111 8t-105 26t-94.5 51t-74.5 79t-50.5 114.5t-17.5 153.5v565h353v-473q0 -118 60.5 -164.5t166.5 -46.5q90 0 166.5 30t118.5 75v579z" />
    <glyph glyph-name="Uhungarumlaut" unicode="&#x170;" horiz-adv-x="1759" 
d="M993 1915l-366 -438l-154 90l275 518zM1571 1792l-461 -338l-127 127l391 434zM874 -37q-370 0 -553.5 181.5t-183.5 547.5v690h357v-692q0 -113 28 -193t81.5 -124t119 -63t151.5 -19q66 0 121.5 11.5t106.5 40t86.5 72.5t56.5 114t21 161v692h356v-690
q0 -366 -186 -547.5t-562 -181.5z" />
    <glyph glyph-name="uhungarumlaut" unicode="&#x171;" horiz-adv-x="1591" 
d="M909 1491l-366 -438l-154 90l275 518zM1026 1030l-127 127l391 434l197 -223zM1055 379v579h352v-960h-326v106q-73 -68 -186 -105.5t-252 -37.5q-59 0 -111 8t-105 26t-94.5 51t-74.5 79t-50.5 114.5t-17.5 153.5v565h353v-473q0 -118 60.5 -164.5t166.5 -46.5
q90 0 166.5 30t118.5 75z" />
    <glyph glyph-name="Uogonek" unicode="&#x172;" horiz-adv-x="1759" 
d="M1266 1382h356v-690q0 -611 -526 -710q-79 -31 -122.5 -66.5t-43.5 -69.5q0 -47 92 -47q93 0 162 23l10 -213q-84 -25 -244 -25q-155 0 -225 47t-70 148q0 109 103 188q-621 55 -621 725v690h357v-692q0 -113 28 -193t81.5 -124t119 -63t151.5 -19q66 0 121.5 11.5
t106.5 40t86.5 72.5t56.5 114t21 161v692z" />
    <glyph glyph-name="uogonek" unicode="&#x173;" horiz-adv-x="1591" 
d="M1362 -2q-115 -40 -169 -75t-54 -75q0 -47 92 -47q93 0 162 23l10 -213q-91 -27 -244 -27q-155 0 -225 48t-70 149q0 158 217 242v81q-73 -68 -186 -105.5t-252 -37.5q-59 0 -111 8t-105 26t-94.5 51t-74.5 79t-50.5 114.5t-17.5 153.5v565h353v-473q0 -118 60.5 -164.5
t166.5 -46.5q90 0 166.5 30t118.5 75v579h352v-905l25 -33q-4 -1 -12.5 -4t-12.5 -4v-14h-45z" />
    <glyph glyph-name="Wcircumflex" unicode="&#x174;" horiz-adv-x="2566" 
d="M1286 1720l-366 -247l-117 141l389 401h186l389 -401l-114 -141zM2103 1382h404l-514 -1384h-371l-342 956l-340 -956h-367l-516 1384h404l301 -938l301 938h434l307 -940z" />
    <glyph glyph-name="wcircumflex" unicode="&#x175;" horiz-adv-x="2197" 
d="M1100 1296l-367 -247l-117 141l390 401h186l389 -401l-115 -141zM1735 958h434l-430 -958h-434l-213 592l-224 -592h-411l-428 958h434l194 -604l215 604h453l213 -604z" />
    <glyph glyph-name="Ycircumflex" unicode="&#x176;" horiz-adv-x="1787" 
d="M895 1720l-367 -247l-116 141l389 401h186l389 -401l-114 -141zM1759 1382l-682 -899v-483h-356v487l-692 895h420l446 -604l442 604h422z" />
    <glyph glyph-name="ycircumflex" unicode="&#x177;" horiz-adv-x="1497" 
d="M750 1296l-367 -247l-117 141l389 401h187l389 -401l-115 -141zM1042 958h435l-740 -1355h-375l191 356l-533 999h435l280 -634z" />
    <glyph glyph-name="Ydieresis" unicode="&#x178;" horiz-adv-x="1787" 
d="M616 1516q-100 0 -153 53t-53 153q0 95 53 145t153 50q98 0 153.5 -50.5t55.5 -144.5q0 -99 -55.5 -152.5t-153.5 -53.5zM1171 1516q-98 0 -151 53t-53 153q0 95 52.5 145t151.5 50t155 -50.5t56 -144.5q0 -99 -56 -152.5t-155 -53.5zM1759 1382l-682 -899v-483h-356v487
l-692 895h420l446 -604l442 604h422z" />
    <glyph glyph-name="Zacute" unicode="&#x179;" horiz-adv-x="1609" 
d="M1219 1772l-484 -299l-117 141l426 401zM678 319h856v-319h-1425v270l847 793h-878v319h1429v-282z" />
    <glyph glyph-name="zacute" unicode="&#x17a;" horiz-adv-x="1259" 
d="M1053 1348l-484 -299l-116 141l428 401zM639 281h582v-281h-1102v270l559 408h-576v280h1098v-276z" />
    <glyph glyph-name="Zdotaccent" unicode="&#x17b;" horiz-adv-x="1609" 
d="M793 1516q-98 0 -151.5 54t-53.5 152q0 95 53 145t152 50t155 -50.5t56 -144.5q0 -98 -56 -152t-155 -54zM678 319h856v-319h-1425v270l847 793h-878v319h1429v-282z" />
    <glyph glyph-name="zdotaccent" unicode="&#x17c;" horiz-adv-x="1259" 
d="M627 1092q-98 0 -151.5 54t-53.5 152q0 95 53 145t152 50q100 0 156.5 -50.5t56.5 -144.5q0 -97 -57 -151.5t-156 -54.5zM639 281h582v-281h-1102v270l559 408h-576v280h1098v-276z" />
    <glyph glyph-name="Zcaron" unicode="&#x17d;" horiz-adv-x="1609" 
d="M889 1473h-187l-389 403l117 139l367 -246l366 246l115 -139zM678 319h856v-319h-1425v270l847 793h-878v319h1429v-282z" />
    <glyph glyph-name="zcaron" unicode="&#x17e;" horiz-adv-x="1259" 
d="M723 1049h-184l-392 403l117 139l367 -245l366 245l117 -139zM639 281h582v-281h-1102v270l559 408h-576v280h1098v-276z" />
    <glyph glyph-name="uni01CD" unicode="&#x1cd;" horiz-adv-x="1773" 
d="M981 1473h-186l-389 403l116 139l367 -246l366 246l115 -139zM1333 0l-86 205h-723l-84 -205h-393l617 1386h440l622 -1386h-393zM641 489h487l-243 588z" />
    <glyph glyph-name="uni01CE" unicode="&#x1ce;" horiz-adv-x="1374" 
d="M780 1049h-186l-389 403l117 139l366 -245l367 245l114 -139zM676 995q106 0 189 -11t159.5 -40t126.5 -77.5t79.5 -126t29.5 -181.5v-559h-320v127q-78 -92 -193.5 -128t-277.5 -36q-204 0 -295.5 77t-91.5 230q0 148 96 215.5t311 67.5h412q-20 78 -95.5 112.5
t-213.5 34.5q-113 0 -196.5 -24.5t-166.5 -77.5l-129 260q212 137 576 137zM567 219q266 0 340 111v39h-379q-94 0 -94 -72q0 -78 133 -78z" />
    <glyph glyph-name="uni01CF" unicode="&#x1cf;" horiz-adv-x="768" 
d="M477 1473h-186l-389 403l116 139l367 -246l367 246l114 -139zM207 0v1382h354v-1382h-354z" />
    <glyph glyph-name="uni01D0" unicode="&#x1d0;" horiz-adv-x="745" 
d="M467 1049h-186l-390 403l117 139l367 -245l366 245l115 -139zM197 0v958h352v-958h-352z" />
    <glyph glyph-name="uni01D1" unicode="&#x1d1;" horiz-adv-x="1925" 
d="M1055 1473h-187l-389 403l117 139l367 -246l366 246l115 -139zM961 1419q422 0 633.5 -175.5t211.5 -516.5v-70q0 -342 -211.5 -518t-633.5 -176q-421 0 -631.5 176t-210.5 518v70q0 341 210.5 516.5t631.5 175.5zM1450 653v76q0 81 -25.5 143.5t-69.5 103.5t-107 67.5
t-133.5 37.5t-153.5 11q-82 0 -151.5 -11t-132.5 -37.5t-107 -67.5t-69.5 -103.5t-25.5 -143.5v-76q0 -99 38.5 -171.5t107.5 -113t153 -59t187 -18.5q83 0 153.5 11t133.5 37.5t107 67.5t69.5 103.5t25.5 142.5z" />
    <glyph glyph-name="uni01D2" unicode="&#x1d2;" horiz-adv-x="1533" 
d="M860 1049h-186l-389 403l116 139l367 -245l367 245l114 -139zM766 995q108 0 200.5 -14.5t177 -49t144 -88.5t94.5 -138.5t35 -192.5v-63q0 -109 -35 -193.5t-94.5 -139t-144 -89.5t-177 -49.5t-200.5 -14.5t-200 14.5t-176.5 49.5t-143.5 89.5t-94 139t-35 193.5v63
q0 108 35 192.5t94 138.5t143.5 88.5t176.5 49t200 14.5zM1065 465v33q0 202 -299 202q-297 0 -297 -202v-33q0 -205 297 -205q299 0 299 205z" />
    <glyph glyph-name="uni01D3" unicode="&#x1d3;" horiz-adv-x="1759" 
d="M973 1473h-187l-389 403l117 139l367 -246l366 246l115 -139zM1266 1382h356v-690q0 -366 -186 -547.5t-562 -181.5q-370 0 -553.5 181.5t-183.5 547.5v690h357v-692q0 -113 28 -193t81.5 -124t119 -63t151.5 -19q66 0 121.5 11.5t106.5 40t86.5 72.5t56.5 114t21 161
v692z" />
    <glyph glyph-name="uni01D4" unicode="&#x1d4;" horiz-adv-x="1591" 
d="M889 1049h-187l-389 403l117 139l367 -245l366 245l115 -139zM1055 958h352v-960h-326v106q-73 -68 -186 -105.5t-252 -37.5q-59 0 -111 8t-105 26t-94.5 51t-74.5 79t-50.5 114.5t-17.5 153.5v565h353v-473q0 -118 60.5 -164.5t166.5 -46.5q90 0 166.5 30t118.5 75v579z
" />
    <glyph glyph-name="uni01D5" unicode="&#x1d5;" horiz-adv-x="1759" 
d="M1393 1987h-1024v282h1024v-282zM604 1473q-100 0 -153.5 54t-53.5 154q0 94 53.5 143.5t153.5 49.5q98 0 153.5 -50t55.5 -143q0 -99 -55.5 -153.5t-153.5 -54.5zM1159 1473q-98 0 -151.5 54t-53.5 154q0 93 53 143t152 50t155 -50t56 -143q0 -99 -56 -153.5t-155 -54.5
zM874 -37q-370 0 -553.5 181.5t-183.5 547.5v690h357v-692q0 -113 28 -193t81.5 -124t119 -63t151.5 -19q66 0 121.5 11.5t106.5 40t86.5 72.5t56.5 114t21 161v692h356v-690q0 -366 -186 -547.5t-562 -181.5z" />
    <glyph glyph-name="uni01D6" unicode="&#x1d6;" horiz-adv-x="1591" 
d="M1309 1823v-283h-1024v283h1024zM311 1253q0 94 54 143.5t153 49.5t155 -49.5t56 -143.5q0 -99 -56.5 -154t-154.5 -55t-152.5 54.5t-54.5 154.5zM870 1253q0 95 53 144t152 49t155 -49.5t56 -143.5q0 -99 -56.5 -154t-154.5 -55t-151.5 54.5t-53.5 154.5zM1055 958h352
v-960h-326v106q-73 -68 -186 -105.5t-252 -37.5q-59 0 -111 8t-105 26t-94.5 51t-74.5 79t-50.5 114.5t-17.5 153.5v565h353v-473q0 -118 60.5 -164.5t166.5 -46.5q90 0 166.5 30t118.5 75v579z" />
    <glyph glyph-name="uni01D7" unicode="&#x1d7;" horiz-adv-x="1759" 
d="M1303 2216l-484 -299l-117 139l428 404zM604 1473q-100 0 -153.5 54t-53.5 154q0 94 53.5 143.5t153.5 49.5q98 0 153.5 -50t55.5 -143q0 -99 -55.5 -153.5t-153.5 -54.5zM1159 1473q-98 0 -151.5 54t-53.5 154q0 93 53 143t152 50t155 -50t56 -143q0 -99 -56 -153.5
t-155 -54.5zM874 -37q-370 0 -553.5 181.5t-183.5 547.5v690h357v-692q0 -113 28 -193t81.5 -124t119 -63t151.5 -19q66 0 121.5 11.5t106.5 40t86.5 72.5t56.5 114t21 161v692h356v-690q0 -366 -186 -547.5t-562 -181.5z" />
    <glyph glyph-name="uni01D8" unicode="&#x1d8;" horiz-adv-x="1591" 
d="M1219 1763l-484 -299l-117 140l426 403zM518 1042q-98 0 -152.5 54.5t-54.5 152.5q0 95 54 145t153 50q98 0 154.5 -50.5t56.5 -144.5q0 -97 -56.5 -152t-154.5 -55zM870 1249q0 95 53 145t152 50q98 0 154.5 -50.5t56.5 -144.5q0 -97 -56.5 -152t-154.5 -55t-151.5 54.5
t-53.5 152.5zM1055 958h352v-960h-326v106q-73 -68 -186 -105.5t-252 -37.5q-59 0 -111 8t-105 26t-94.5 51t-74.5 79t-50.5 114.5t-17.5 153.5v565h353v-473q0 -118 60.5 -164.5t166.5 -46.5q90 0 166.5 30t118.5 75v579z" />
    <glyph glyph-name="uni01D9" unicode="&#x1d9;" horiz-adv-x="1759" 
d="M975 1886h-187l-391 404l117 139l367 -248l366 248l117 -139zM604 1468q-100 0 -153.5 54.5t-53.5 154.5q0 94 53.5 143.5t153.5 49.5q98 0 153.5 -50t55.5 -143q0 -99 -56 -154t-153 -55zM1159 1870q99 0 155 -50t56 -143q0 -99 -56 -154t-155 -55q-98 0 -151.5 54.5
t-53.5 154.5q0 93 53 143t152 50zM1266 1382h356v-690q0 -366 -186 -547.5t-562 -181.5q-370 0 -553.5 181.5t-183.5 547.5v690h357v-692q0 -113 28 -193t81.5 -124t119 -63t151.5 -19q66 0 121.5 11.5t106.5 40t86.5 72.5t56.5 114t21 161v692z" />
    <glyph glyph-name="uni01DA" unicode="&#x1da;" horiz-adv-x="1591" 
d="M889 1450h-187l-389 403l117 140l367 -246l366 246l115 -140zM518 1044q-99 0 -153 54t-54 153q0 94 54 143.5t153 49.5t155 -49.5t56 -143.5q0 -99 -56.5 -153t-154.5 -54zM1075 1444q99 0 155 -49.5t56 -143.5q0 -99 -56.5 -153t-154.5 -54t-151.5 53.5t-53.5 153.5
q0 95 53 144t152 49zM1055 958h352v-960h-326v106q-73 -68 -186 -105.5t-252 -37.5q-59 0 -111 8t-105 26t-94.5 51t-74.5 79t-50.5 114.5t-17.5 153.5v565h353v-473q0 -118 60.5 -164.5t166.5 -46.5q90 0 166.5 30t118.5 75v579z" />
    <glyph glyph-name="uni01DB" unicode="&#x1db;" horiz-adv-x="1759" 
d="M469 2161l172 243l428 -403l-117 -139zM604 1473q-100 0 -153.5 54t-53.5 154q0 94 53.5 143.5t153.5 49.5q98 0 153.5 -50t55.5 -143q0 -99 -55.5 -153.5t-153.5 -54.5zM1159 1473q-98 0 -151.5 54t-53.5 154q0 93 53 143t152 50t155 -50t56 -143q0 -99 -56 -153.5
t-155 -54.5zM874 -37q-370 0 -553.5 181.5t-183.5 547.5v690h357v-692q0 -113 28 -193t81.5 -124t119 -63t151.5 -19q66 0 121.5 11.5t106.5 40t86.5 72.5t56.5 114t21 161v692h356v-690q0 -366 -186 -547.5t-562 -181.5z" />
    <glyph glyph-name="uni01DC" unicode="&#x1dc;" horiz-adv-x="1591" 
d="M983 1599l-115 -139l-483 299l172 244zM518 1044q-98 0 -152.5 54.5t-54.5 154.5q0 94 54 143.5t153 49.5t155 -49.5t56 -143.5q0 -99 -56.5 -154t-154.5 -55zM870 1253q0 95 53 144t152 49t155 -49.5t56 -143.5q0 -99 -56.5 -154t-154.5 -55t-151.5 54.5t-53.5 154.5z
M1055 958h352v-960h-326v106q-73 -68 -186 -105.5t-252 -37.5q-59 0 -111 8t-105 26t-94.5 51t-74.5 79t-50.5 114.5t-17.5 153.5v565h353v-473q0 -118 60.5 -164.5t166.5 -46.5q90 0 166.5 30t118.5 75v579z" />
    <glyph glyph-name="uni0218" unicode="&#x218;" horiz-adv-x="1765" 
d="M1059 844q156 -10 264 -33.5t188.5 -69.5t119 -120t38.5 -179q0 -124 -52 -217t-150.5 -150t-231.5 -84.5t-303 -27.5q-300 0 -495 53.5t-345 180.5l166 290q118 -100 276 -152t381 -52q192 0 296 33t104 98q0 54 -45.5 76.5t-165.5 33.5l-447 33q-117 8 -208.5 34
t-151 64.5t-98 90t-54.5 108t-16 121.5q0 222 183 333t565 111q215 0 403 -39.5t371 -146.5l-133 -299q-263 170 -670 170q-140 0 -221.5 -14.5t-111.5 -40t-30 -66.5q0 -53 55.5 -79t202.5 -38zM870 -92q144 0 228 -65.5t84 -186.5q0 -96 -45 -163t-124 -98.5t-185.5 -41
t-229.5 9.5l27 178q130 -24 207 -12.5t108 47t31 102.5v5q-39 -66 -156 -66q-78 0 -127 32t-49 97q0 75 55.5 118.5t175.5 43.5z" />
    <glyph glyph-name="uni0219" unicode="&#x219;" horiz-adv-x="1331" 
d="M872 588q92 -5 158 -20.5t115.5 -47t73.5 -84t24 -127.5q0 -346 -598 -346q-364 0 -559 119l70 254q70 -53 204 -86t295 -33q121 0 186.5 18t65.5 64q0 53 -98 59l-297 13q-115 4 -198 27.5t-129.5 63.5t-67.5 88t-21 107q0 178 147.5 258t426.5 80q176 0 309.5 -23.5
t245.5 -86.5l-127 -230q-136 84 -416 84q-250 0 -250 -69q0 -58 127 -68zM653 -92q144 0 228 -65.5t84 -186.5q0 -96 -45 -163t-124 -98.5t-185.5 -41t-229.5 9.5l27 178q130 -24 207 -12.5t108 47t31 102.5v5q-39 -66 -156 -66q-78 0 -127 32t-49 97q0 75 55.5 118.5
t175.5 43.5z" />
    <glyph glyph-name="uni021A" unicode="&#x21a;" horiz-adv-x="1564" 
d="M47 1382h1469v-319h-555v-1063h-357v1063h-557v319zM770 -92q144 0 227.5 -65.5t83.5 -186.5q0 -96 -45 -163t-123.5 -98.5t-185 -41t-229.5 9.5l26 178q130 -24 207 -12.5t108 47t31 102.5v5q-39 -66 -155 -66q-78 0 -127 32t-49 97q0 75 55.5 118.5t175.5 43.5z" />
    <glyph glyph-name="uni021B" unicode="&#x21b;" horiz-adv-x="1331" 
d="M1272 82q-71 -56 -202 -87.5t-282 -31.5q-70 0 -126.5 5.5t-114 21t-102 41t-83.5 66t-64 95.5t-39.5 131.5t-14.5 170.5v184h-144v280h144v256h352v-256h606v-280h-606v-156q0 -80 17.5 -134.5t51 -82t72 -38.5t90.5 -11q170 0 328 84zM702 -96q144 0 228 -65.5
t84 -186.5q0 -96 -45 -163t-124 -98.5t-185.5 -41t-229.5 9.5l27 178q130 -24 207 -12.5t108 47t31 102.5v4q-38 -65 -156 -65q-78 0 -127 32t-49 97q0 75 55.5 118.5t175.5 43.5z" />
    <glyph glyph-name="gravecomb" unicode="&#x300;" 
d="M-604 1348l172 243l428 -401l-117 -141z" />
    <glyph glyph-name="acutecomb" unicode="&#x301;" 
d="M-20 1348l-484 -299l-117 141l426 401z" />
    <glyph glyph-name="uni0302" unicode="&#x302;" 
d="M-37 1190l-115 -141l-366 247l-367 -247l-116 141l389 401h186z" />
    <glyph glyph-name="tildecomb" unicode="&#x303;" 
d="M-987 1075q-7 114 12.5 199.5t60 135t92 73.5t113.5 24q27 0 49.5 -3t48.5 -14t36 -15.5t44 -24t42 -23.5q12 -8 33 -22.5t31 -21t24.5 -12t27.5 -5.5q30 0 43 38t4 99h281q11 -215 -74.5 -324.5t-214.5 -109.5q-16 0 -31.5 2t-26.5 3.5t-26.5 7.5t-22 8t-23 11t-20 11
t-22.5 13.5t-22 13.5q-7 4 -24 16t-22.5 15.5t-18.5 11t-20 9.5t-17.5 4.5t-20.5 2.5q-69 0 -56 -123h-280z" />
    <glyph glyph-name="uni0304" unicode="&#x304;" 
d="M-94 1159h-1024v281h1024v-281z" />
    <glyph glyph-name="uni0306" unicode="&#x306;" 
d="M-547 1040q-127 0 -226 36.5t-161 101.5t-93.5 151t-31.5 189h318q0 -56 18 -103t63.5 -81t112.5 -34q51 0 89.5 19t59 51.5t30.5 69t10 78.5h317q0 -103 -30.5 -189t-91.5 -151t-159 -101.5t-225 -36.5z" />
    <glyph glyph-name="uni0307" unicode="&#x307;" 
d="M-256 1092q-98 0 -151.5 54t-53.5 152q0 95 53 145t152 50t155 -50.5t56 -144.5q0 -98 -56 -152t-155 -54z" />
    <glyph glyph-name="uni0308" unicode="&#x308;" 
d="M-811 1090q-100 0 -153.5 54t-53.5 154q0 95 53.5 144t153.5 49q98 0 153.5 -49.5t55.5 -143.5q0 -99 -55.5 -153.5t-153.5 -54.5zM-256 1090q-98 0 -151.5 54t-53.5 154q0 95 53 144t152 49q100 0 155.5 -49.5t55.5 -143.5q0 -99 -56 -153.5t-155 -54.5z" />
    <glyph glyph-name="uni030A" unicode="&#x30a;" 
d="M-483 1073q-229 0 -348 78.5t-119 210.5v14q0 132 119 210.5t348 78.5q227 0 342.5 -78t115.5 -211v-14q0 -133 -115.5 -211t-342.5 -78zM-483 1286q202 0 202 80v6q0 39 -44.5 58.5t-157.5 19.5q-114 0 -161.5 -19.5t-47.5 -58.5v-6q0 -80 209 -80z" />
    <glyph glyph-name="uni030B" unicode="&#x30b;" 
d="M-598 1491l-367 -438l-153 90l274 518zM-20 1368l-461 -338l-127 127l391 434z" />
    <glyph glyph-name="uni030C" unicode="&#x30c;" 
d="M-152 1591l115 -139l-389 -403h-186l-389 403l116 139l367 -245z" />
    <glyph glyph-name="uni0312" unicode="&#x312;" 
d="M-47 1430q-192 31 -270 -2.5t-78 -135.5v-6q38 68 157 68q77 0 127 -32t50 -97q0 -75 -56 -118.5t-176 -43.5q-145 0 -229 65.5t-84 186.5q0 96 45 163t123.5 99t185 41.5t229.5 -8.5z" />
    <glyph glyph-name="uni0326" unicode="&#x326;" 
d="M-348 -92q144 0 227.5 -65.5t83.5 -186.5q0 -96 -45 -163t-124 -98.5t-185.5 -41t-229.5 9.5l27 178q130 -24 207 -12.5t108 47t31 102.5v5q-39 -66 -155 -66q-78 0 -127.5 32t-49.5 97q0 75 56 118.5t176 43.5z" />
    <glyph glyph-name="uni0327" unicode="&#x327;" 
d="M-322 -78q154 3 228 -41t74 -143q0 -56 -24.5 -94.5t-69.5 -59t-98 -29t-122 -8.5q-93 0 -162 11.5t-88 21.5l35 154q66 -23 174 -23q115 0 115 39q0 40 -240 35l37 219h162z" />
    <glyph glyph-name="uni0328" unicode="&#x328;" 
d="M-293 -436q-155 0 -225 47.5t-70 148.5q0 61 34 111t86.5 83t124 57.5t137 37t134.5 19.5l52 -68q-153 -48 -223 -87.5t-70 -84.5q0 -47 92 -47q96 0 162 22l10 -213q-88 -26 -244 -26z" />
    <glyph glyph-name="uni0335" unicode="&#x335;" 
d="M-90 430h-1182v281h1182v-281z" />
    <glyph glyph-name="uni0336" unicode="&#x336;" 
d="M-113 434h-1898v281h1898v-281z" />
    <glyph glyph-name="uni0337" unicode="&#x337;" 
d="M-47 741l-1036 -569l-136 246l1035 569z" />
    <glyph glyph-name="uni0338" unicode="&#x338;" 
 />
    <glyph glyph-name="Wgrave" unicode="&#x1e80;" horiz-adv-x="2566" 
d="M1473 1614l-117 -141l-484 299l172 243zM2103 1382h404l-514 -1384h-371l-342 956l-340 -956h-367l-516 1384h404l301 -938l301 938h434l307 -940z" />
    <glyph glyph-name="wgrave" unicode="&#x1e81;" horiz-adv-x="2197" 
d="M1288 1190l-117 -141l-483 299l172 243zM1735 958h434l-430 -958h-434l-213 592l-224 -592h-411l-428 958h434l194 -604l215 604h453l213 -604z" />
    <glyph glyph-name="Wacute" unicode="&#x1e82;" horiz-adv-x="2566" 
d="M1708 1772l-483 -299l-117 141l426 401zM2103 1382h404l-514 -1384h-371l-342 956l-340 -956h-367l-516 1384h404l301 -938l301 938h434l307 -940z" />
    <glyph glyph-name="wacute" unicode="&#x1e83;" horiz-adv-x="2197" 
d="M1522 1348l-484 -299l-116 141l426 401zM1735 958h434l-430 -958h-434l-213 592l-224 -592h-411l-428 958h434l194 -604l215 604h453l213 -604z" />
    <glyph glyph-name="Wdieresis" unicode="&#x1e84;" horiz-adv-x="2566" 
d="M1008 1516q-100 0 -153.5 53t-53.5 153q0 95 53.5 145t153.5 50q98 0 153.5 -50.5t55.5 -144.5q0 -99 -55.5 -152.5t-153.5 -53.5zM1563 1516q-99 0 -152 53t-53 153q0 95 53 145t152 50t155 -50.5t56 -144.5q0 -99 -56 -152.5t-155 -53.5zM2103 1382h404l-514 -1384
h-371l-342 956l-340 -956h-367l-516 1384h404l301 -938l301 938h434l307 -940z" />
    <glyph glyph-name="wdieresis" unicode="&#x1e85;" horiz-adv-x="2197" 
d="M823 1090q-100 0 -153.5 54t-53.5 154q0 95 53.5 144t153.5 49q98 0 153.5 -49.5t55.5 -143.5q0 -99 -55.5 -153.5t-153.5 -54.5zM1378 1090q-98 0 -151 54t-53 154q0 95 52.5 144t151.5 49q100 0 155.5 -49.5t55.5 -143.5q0 -99 -56 -153.5t-155 -54.5zM1735 958h434
l-430 -958h-434l-213 592l-224 -592h-411l-428 958h434l194 -604l215 604h453l213 -604z" />
    <glyph glyph-name="Ygrave" unicode="&#x1ef2;" horiz-adv-x="1787" 
d="M1081 1614l-116 -141l-484 299l172 243zM1759 1382l-682 -899v-483h-356v487l-692 895h420l446 -604l442 604h422z" />
    <glyph glyph-name="ygrave" unicode="&#x1ef3;" horiz-adv-x="1497" 
d="M938 1190l-117 -141l-483 299l172 243zM1042 958h435l-740 -1355h-375l191 356l-533 999h435l280 -634z" />
    <glyph glyph-name="endash" unicode="&#x2013;" horiz-adv-x="1519" 
d="M1409 459h-1296v280h1296v-280z" />
    <glyph glyph-name="emdash" unicode="&#x2014;" horiz-adv-x="2025" 
d="M1913 459h-1800v280h1800v-280z" />
    <glyph glyph-name="quoteleft" unicode="&#x2018;" horiz-adv-x="626" 
d="M569 1370q-152 26 -242.5 -19t-90.5 -134q0 -32 10 -52q43 62 145 62q82 0 129 -39.5t47 -120.5q0 -87 -57.5 -134.5t-165.5 -47.5q-68 0 -124.5 18t-101 55.5t-69 102t-24.5 151.5q0 197 147 299.5t424 71.5z" />
    <glyph glyph-name="quoteright" unicode="&#x2019;" horiz-adv-x="626" 
d="M285 1589q142 0 229.5 -78.5t87.5 -246.5q0 -198 -146.5 -300t-424.5 -71l26 211q152 -24 243 21.5t91 134.5q0 29 -10 49q-42 -60 -145 -60q-82 0 -129.5 38.5t-47.5 119.5q0 88 58 135t168 47z" />
    <glyph glyph-name="quotesinglbase" unicode="&#x201a;" horiz-adv-x="626" 
d="M285 299q142 0 229.5 -79t87.5 -247q0 -197 -147 -299t-424 -71l26 213q152 -26 243 19t91 134q0 31 -10 51q-42 -61 -145 -61q-82 0 -129.5 39.5t-47.5 120.5q0 87 58 133.5t168 46.5z" />
    <glyph glyph-name="quotedblleft" unicode="&#x201c;" horiz-adv-x="1222" 
d="M25 1212q0 197 147 299.5t424 71.5l-27 -213q-152 26 -242.5 -19t-90.5 -134q0 -32 10 -52q43 62 145 62q82 0 129 -39.5t47 -120.5q0 -87 -57.5 -134.5t-165.5 -47.5q-68 0 -124.5 18t-101 55.5t-69 102t-24.5 151.5zM1165 1370q-151 26 -242.5 -19t-91.5 -134
q0 -30 11 -52q43 62 145 62q82 0 129 -39.5t47 -120.5q0 -87 -57.5 -134.5t-165.5 -47.5q-68 0 -124.5 18t-101 55.5t-69 102t-24.5 151.5q0 197 147 299.5t424 71.5z" />
    <glyph glyph-name="quotedblright" unicode="&#x201d;" horiz-adv-x="1222" 
d="M285 1589q142 0 229.5 -78.5t87.5 -246.5q0 -198 -146.5 -300t-424.5 -71l26 211q152 -24 243 21.5t91 134.5q0 29 -10 49q-42 -60 -145 -60q-82 0 -129.5 38.5t-47.5 119.5q0 88 58 135t168 47zM881 1589q142 0 229.5 -78.5t87.5 -246.5q0 -198 -146.5 -300t-424.5 -71
l26 211q152 -24 243 21.5t91 134.5q0 29 -10 49q-42 -60 -146 -60q-82 0 -129 38.5t-47 119.5q0 88 58 135t168 47z" />
    <glyph glyph-name="quotedblbase" unicode="&#x201e;" horiz-adv-x="1222" 
d="M285 301q142 0 229.5 -79t87.5 -247q0 -197 -147 -299t-424 -71l26 213q152 -26 243 19t91 134q0 32 -10 52q-43 -62 -145 -62q-82 0 -129.5 39.5t-47.5 120.5q0 87 58 133.5t168 46.5zM881 301q142 0 229.5 -79t87.5 -247q0 -197 -147 -299t-424 -71l26 213
q152 -26 243 19t91 134q0 32 -10 52q-43 -62 -146 -62q-82 0 -129 39.5t-47 120.5q0 87 58 133.5t168 46.5z" />
    <glyph glyph-name="dagger" unicode="&#x2020;" horiz-adv-x="1228" 
 />
    <glyph glyph-name="daggerdbl" unicode="&#x2021;" horiz-adv-x="1228" 
 />
    <glyph glyph-name="bullet" unicode="&#x2022;" horiz-adv-x="741" 
d="M365 434q-137 0 -211 69.5t-74 196.5q0 121 74 184.5t211 63.5q138 0 216 -64t78 -184q0 -127 -78 -196.5t-216 -69.5z" />
    <glyph glyph-name="ellipsis" unicode="&#x2026;" horiz-adv-x="1738" 
d="M1419 -31q-107 0 -166 54.5t-59 154.5q0 95 58.5 145t166.5 50q109 0 170.5 -50.5t61.5 -144.5q0 -99 -62 -154t-170 -55zM313 -37q-107 0 -166 55t-59 156q0 95 58.5 145t166.5 50q109 0 170.5 -50.5t61.5 -144.5q0 -100 -62 -155.5t-170 -55.5zM866 -37q-107 0 -166 55
t-59 156q0 95 58.5 145t166.5 50q109 0 170.5 -50.5t61.5 -144.5q0 -100 -62 -155.5t-170 -55.5z" />
    <glyph glyph-name="perthousand" unicode="&#x2030;" horiz-adv-x="3659" 
d="M668 717q-108 0 -194.5 16t-158.5 51.5t-111.5 99.5t-39.5 152v64q0 71 26.5 125.5t72 90t111 58t137.5 32t157 9.5q112 0 201.5 -15.5t163.5 -50.5t114.5 -98t40.5 -151v-64q0 -88 -40.5 -152t-114.5 -99.5t-163.5 -51.5t-201.5 -16zM184 0l1698 1382h471l-1675 -1382
h-494zM668 944q58 0 101 4.5t78.5 16t54 32.5t18.5 52v38q0 103 -252 103q-236 0 -236 -103v-38q0 -31 17.5 -52t51 -32t74 -16t93.5 -5zM1884 -37q-108 0 -195 16t-158.5 52t-111 100t-39.5 152v61q0 88 39.5 152t111 99t158.5 51t195 16q112 0 201.5 -16t163.5 -51
t114.5 -99t40.5 -152v-61q0 -88 -40.5 -152t-114.5 -100t-163.5 -52t-201.5 -16zM2959 -37q-107 0 -194 16t-158.5 52t-111 100t-39.5 152v61q0 88 39.5 152t111 99t158 51t194.5 16q89 0 163.5 -9.5t142 -32.5t114 -58.5t74 -91t27.5 -126.5v-61q0 -88 -40.5 -152
t-114.5 -100t-164 -52t-202 -16zM1884 190q57 0 100 5t79 16t54.5 32t18.5 52v39q0 56 -66.5 78t-185.5 22q-114 0 -175.5 -21.5t-61.5 -78.5v-39q0 -31 17.5 -52t51 -32t74 -16t94.5 -5zM2959 190q57 0 100 5t79 16t54.5 32t18.5 52v39q0 56 -66.5 78t-185.5 22
q-113 0 -174 -21.5t-61 -78.5v-39q0 -59 61.5 -82t173.5 -23z" />
    <glyph glyph-name="guilsinglleft" unicode="&#x2039;" horiz-adv-x="962" 
d="M901 670l-549 -197l549 -184l-72 -297l-794 352v270l794 353z" />
    <glyph glyph-name="guilsinglright" unicode="&#x203a;" horiz-adv-x="960" 
d="M133 967l795 -353v-270l-795 -352l-72 297l549 184l-549 197z" />
    <glyph glyph-name="fraction" unicode="&#x2044;" horiz-adv-x="1228" 
 />
    <glyph glyph-name="Euro" unicode="&#x20ac;" horiz-adv-x="1792" 
d="M1532 494l209 -254q-139 -150 -337.5 -213.5t-488.5 -63.5q-329 0 -519 130.5t-236 383.5h-135v174h118v6v70v16h-118v160h133q96 516 794 516q248 0 423 -54t335 -189l-205 -285q-105 102 -233.5 151.5t-319.5 49.5q-334 0 -420 -189h680v-160h-712v-14v-76v-2h712v-174
h-677q86 -186 417 -186q205 0 333.5 44.5t246.5 158.5z" />
    <glyph glyph-name="trademark" unicode="&#x2122;" horiz-adv-x="3256" 
d="M113 1063v319h1214v-319h-428v-543h-356v543h-430zM2640 1382h393v-862h-340v430l-285 -344h-270l-280 344v-430h-338v862h393l360 -438z" />
    <glyph glyph-name="minus" unicode="&#x2212;" horiz-adv-x="1411" 
d="M1346 520h-1280v250h1280v-250z" />
    <glyph glyph-name="notequal" unicode="&#x2260;" horiz-adv-x="1228" 
 />
    <glyph glyph-name="lessequal" unicode="&#x2264;" horiz-adv-x="1228" 
 />
    <glyph glyph-name="greaterequal" unicode="&#x2265;" horiz-adv-x="1228" 
 />
    <glyph glyph-name="lozenge" unicode="&#x25ca;" horiz-adv-x="1228" 
 />
    <glyph glyph-name="i.loclTRK" horiz-adv-x="745" 
d="M371 1092q-98 0 -151.5 54t-53.5 152q0 95 53 145t152 50t155 -50.5t56 -144.5q0 -98 -56 -152t-155 -54zM197 0v958h352v-958h-352z" />
    <glyph glyph-name="a.sc" horiz-adv-x="1646" 
d="M1221 0l-64 127h-680l-63 -127h-383l571 1059h440l574 -1059h-395zM602 379h430l-215 430z" />
    <glyph glyph-name="aacute.sc" horiz-adv-x="1646" 
d="M1249 1450l-483 -299l-117 141l426 402zM1221 0l-64 127h-680l-63 -127h-383l571 1059h440l574 -1059h-395zM602 379h430l-215 430z" />
    <glyph glyph-name="abreve.sc" horiz-adv-x="1646" 
d="M829 1143q-127 0 -226 36.5t-161 101t-93.5 150.5t-31.5 189h318q0 -56 18 -103t63.5 -80.5t112.5 -33.5q51 0 89.5 19t59 51t30.5 69t10 78h317q0 -103 -30.5 -188.5t-91.5 -150.5t-159 -101.5t-225 -36.5zM1221 0l-64 127h-680l-63 -127h-383l571 1059h440l574 -1059
h-395zM602 379h430l-215 430z" />
    <glyph glyph-name="acircumflex.sc" horiz-adv-x="1646" 
d="M827 1399l-366 -248l-117 141l389 402h187l389 -402l-115 -141zM1221 0l-64 127h-680l-63 -127h-383l571 1059h440l574 -1059h-395zM602 379h430l-215 430z" />
    <glyph glyph-name="adieresis.sc" horiz-adv-x="1646" 
d="M549 1192q-100 0 -153.5 54.5t-53.5 154.5q0 95 53.5 143.5t153.5 48.5q98 0 153.5 -49t55.5 -143q0 -99 -56 -154t-153 -55zM1104 1192q-98 0 -151.5 54.5t-53.5 154.5q0 94 53 143t152 49q100 0 155.5 -49t55.5 -143q0 -99 -56 -154t-155 -55zM1221 0l-64 127h-680
l-63 -127h-383l571 1059h440l574 -1059h-395zM602 379h430l-215 430z" />
    <glyph glyph-name="agrave.sc" horiz-adv-x="1646" 
d="M1014 1292l-117 -141l-483 299l172 244zM1221 0l-64 127h-680l-63 -127h-383l571 1059h440l574 -1059h-395zM602 379h430l-215 430z" />
    <glyph glyph-name="amacron.sc" horiz-adv-x="1646" 
d="M1337 1542v-280h-1024v280h1024zM1221 0l-64 127h-680l-63 -127h-383l571 1059h440l574 -1059h-395zM602 379h430l-215 430z" />
    <glyph glyph-name="aogonek.sc" horiz-adv-x="1646" 
d="M1415 -219q96 0 162 22l10 -213q-88 -26 -244 -26q-155 0 -224.5 47.5t-69.5 148.5q0 156 213 240h-41l-64 127h-680l-63 -127h-383l571 1059h440l574 -1059q-153 -48 -223 -87.5t-70 -84.5q0 -47 92 -47zM602 379h430l-215 430z" />
    <glyph glyph-name="aring.sc" horiz-adv-x="1646" 
d="M825 1176q-229 0 -348 78t-119 210v15q0 132 119 210t348 78q227 0 343 -77.5t116 -210.5v-15q0 -133 -116 -210.5t-343 -77.5zM616 1475v-7q0 -79 209 -79q203 0 203 79v7q0 39 -45 58t-158 19q-114 0 -161.5 -19t-47.5 -58zM1221 0l-64 127h-680l-63 -127h-383
l571 1059h440l574 -1059h-395zM602 379h430l-215 430z" />
    <glyph glyph-name="atilde.sc" horiz-adv-x="1646" 
d="M334 1178q-7 114 12.5 199.5t60 135t92 73.5t113.5 24q27 0 49.5 -3t47.5 -13.5t36.5 -15.5t44 -24t41.5 -24q13 -8 34 -23t31 -21.5t24.5 -12t27.5 -5.5q30 0 43 38.5t4 99.5h281q11 -215 -74.5 -325t-214.5 -110q-16 0 -31.5 2t-26.5 3.5t-26.5 7.5t-22 8t-23 11
t-20 11t-22.5 13.5t-22 13.5q-7 4 -24 16t-22.5 15.5t-18.5 11t-20 9.5t-17.5 4.5t-20.5 2.5q-69 0 -56 -122h-280zM1221 0l-64 127h-680l-63 -127h-383l571 1059h440l574 -1059h-395zM602 379h430l-215 430z" />
    <glyph glyph-name="ae.sc" horiz-adv-x="2519" 
d="M1483 289h862v-289h-1204l-8 219h-576l-154 -219h-409l784 1055h1555v-279h-871l6 -133h730v-211h-721zM702 426h422l-14 340h-168z" />
    <glyph glyph-name="b.sc" horiz-adv-x="1796" 
d="M1462 567q108 -20 161.5 -85.5t53.5 -166.5q0 -168 -126 -241.5t-377 -73.5h-959v1055h1034q183 0 271 -61t88 -191q0 -85 -38.5 -145.5t-107.5 -90.5zM1253 688q0 72 -106 72h-586v-156h557q135 0 135 84zM1174 305q149 0 149 94q0 40 -32.5 60t-84.5 20h-645v-174h613z
" />
    <glyph glyph-name="c.sc" horiz-adv-x="1726" 
d="M1610 147q-134 -96 -317.5 -139t-463.5 -43q-181 0 -311 28t-224.5 90.5t-141 168t-46.5 256.5v47q0 280 193 408.5t600 128.5q220 0 400 -33.5t325 -126.5l-162 -281q-94 66 -229.5 97.5t-333.5 31.5q-77 0 -136.5 -5t-118 -20t-96.5 -40t-61.5 -67.5t-23.5 -100.5v-29
q0 -57 23.5 -100t62 -69t98 -41.5t122 -21t142.5 -5.5q368 0 559 155z" />
    <glyph glyph-name="cacute.sc" horiz-adv-x="1726" 
d="M1260 1450l-484 -299l-117 141l426 402zM1610 147q-134 -96 -317.5 -139t-463.5 -43q-181 0 -311 28t-224.5 90.5t-141 168t-46.5 256.5v47q0 280 193 408.5t600 128.5q220 0 400 -33.5t325 -126.5l-162 -281q-94 66 -229.5 97.5t-333.5 31.5q-77 0 -136.5 -5t-118 -20
t-96.5 -40t-61.5 -67.5t-23.5 -100.5v-29q0 -57 23.5 -100t62 -69t98 -41.5t122 -21t142.5 -5.5q368 0 559 155z" />
    <glyph glyph-name="ccaron.sc" horiz-adv-x="1726" 
d="M930 1151h-187l-389 403l117 140l367 -246l366 246l115 -140zM911 281q368 0 559 155l140 -289q-134 -96 -317.5 -139t-463.5 -43q-181 0 -311 28t-224.5 90.5t-141 168t-46.5 256.5v47q0 280 193 408.5t600 128.5q220 0 400 -33.5t325 -126.5l-162 -281
q-94 66 -229.5 97.5t-333.5 31.5q-77 0 -136.5 -5t-118 -20t-96.5 -40t-61.5 -67.5t-23.5 -100.5v-29q0 -57 23.5 -100t62 -69t98 -41.5t122 -21t142.5 -5.5z" />
    <glyph glyph-name="ccedilla.sc" horiz-adv-x="1726" 
d="M1610 147q-129 -92 -302 -135.5t-431 -46.5l-11 -43q154 3 227.5 -41t73.5 -143q0 -56 -24 -94.5t-69.5 -59t-98 -29t-121.5 -8.5q-93 0 -162 11.5t-88 21.5l35 154q66 -23 174 -23q115 0 115 39q0 40 -240 35l31 182q-153 9 -264 42t-190.5 96.5t-119 163.5t-39.5 239
v47q0 280 193 408.5t600 128.5q220 0 400 -33.5t325 -126.5l-162 -281q-94 66 -229.5 97.5t-333.5 31.5q-77 0 -136.5 -5t-118 -20t-96.5 -40t-61.5 -67.5t-23.5 -100.5v-29q0 -57 23.5 -100t62 -69t98 -41.5t122 -21t142.5 -5.5q368 0 559 155z" />
    <glyph glyph-name="cdotaccent.sc" horiz-adv-x="1726" 
d="M834 1194q-98 0 -151.5 54.5t-53.5 152.5q0 95 53 144.5t152 49.5t154.5 -50t55.5 -144q0 -98 -55.5 -152.5t-154.5 -54.5zM1610 147q-134 -96 -317.5 -139t-463.5 -43q-181 0 -311 28t-224.5 90.5t-141 168t-46.5 256.5v47q0 280 193 408.5t600 128.5q220 0 400 -33.5
t325 -126.5l-162 -281q-94 66 -229.5 97.5t-333.5 31.5q-77 0 -136.5 -5t-118 -20t-96.5 -40t-61.5 -67.5t-23.5 -100.5v-29q0 -57 23.5 -100t62 -69t98 -41.5t122 -21t142.5 -5.5q368 0 559 155z" />
    <glyph glyph-name="d.sc" horiz-adv-x="1785" 
d="M1061 1055q165 0 285.5 -35.5t192.5 -102t106 -154.5t34 -200v-37q0 -526 -618 -526h-846v1055h846zM1323 528v29q0 118 -79 159.5t-249 41.5h-426v-449h426q66 0 114 5.5t90.5 19.5t68.5 38.5t40.5 63t14.5 92.5z" />
    <glyph glyph-name="eth.sc" horiz-adv-x="1785" 
d="M1061 1055q165 0 285.5 -35.5t192.5 -102t106 -154.5t34 -200v-37q0 -526 -618 -526h-846v451h-111v178h111v426h846zM1323 528v29q0 118 -79 159.5t-249 41.5h-426v-129h402v-178h-402v-142h426q66 0 114 5.5t90.5 19.5t68.5 38.5t40.5 63t14.5 92.5z" />
    <glyph glyph-name="dcaron.sc" horiz-adv-x="1785" 
d="M1036 1151h-186l-389 403l117 140l366 -246l367 246l114 -140zM1061 1055q165 0 285.5 -35.5t192.5 -102t106 -154.5t34 -200v-37q0 -526 -618 -526h-846v1055h846zM1323 528v29q0 118 -79 159.5t-249 41.5h-426v-449h426q66 0 114 5.5t90.5 19.5t68.5 38.5t40.5 63
t14.5 92.5z" />
    <glyph glyph-name="dcroat.sc" horiz-adv-x="1785" 
d="M1061 1055q165 0 285.5 -35.5t192.5 -102t106 -154.5t34 -200v-37q0 -526 -618 -526h-846v451h-111v178h111v426h846zM1323 528v29q0 118 -79 159.5t-249 41.5h-426v-129h402v-178h-402v-142h426q66 0 114 5.5t90.5 19.5t68.5 38.5t40.5 63t14.5 92.5z" />
    <glyph glyph-name="e.sc" horiz-adv-x="1675" 
d="M569 289h934v-289h-1288v1055h1274v-279h-920v-137h703v-201h-703v-149z" />
    <glyph glyph-name="eacute.sc" horiz-adv-x="1675" 
d="M1315 1442l-484 -299l-116 141l426 402zM569 289h934v-289h-1288v1055h1274v-279h-920v-137h703v-201h-703v-149z" />
    <glyph glyph-name="ecaron.sc" horiz-adv-x="1675" 
d="M985 1143h-186l-389 403l116 140l367 -246l367 246l114 -140zM569 289h934v-289h-1288v1055h1274v-279h-920v-137h703v-201h-703v-149z" />
    <glyph glyph-name="ecircumflex.sc" horiz-adv-x="1675" 
d="M893 1391l-367 -248l-116 141l389 402h186l389 -402l-114 -141zM569 289h934v-289h-1288v1055h1274v-279h-920v-137h703v-201h-703v-149z" />
    <glyph glyph-name="edieresis.sc" horiz-adv-x="1675" 
d="M614 1184q-99 0 -152.5 54.5t-53.5 154.5q0 95 53 143.5t153 48.5q98 0 153.5 -49t55.5 -143q0 -99 -56 -154t-153 -55zM1169 1184q-98 0 -151 54.5t-53 154.5q0 95 52.5 143.5t151.5 48.5q100 0 155.5 -49t55.5 -143q0 -99 -56 -154t-155 -55zM569 289h934v-289h-1288
v1055h1274v-279h-920v-137h703v-201h-703v-149z" />
    <glyph glyph-name="edotaccent.sc" horiz-adv-x="1675" 
d="M889 1186q-98 0 -151.5 54.5t-53.5 152.5q0 95 53 144.5t152 49.5q100 0 155.5 -50t55.5 -144q0 -98 -56 -152.5t-155 -54.5zM569 289h934v-289h-1288v1055h1274v-279h-920v-137h703v-201h-703v-149z" />
    <glyph glyph-name="egrave.sc" horiz-adv-x="1675" 
d="M1079 1284l-116 -141l-484 299l172 244zM569 289h934v-289h-1288v1055h1274v-279h-920v-137h703v-201h-703v-149z" />
    <glyph glyph-name="emacron.sc" horiz-adv-x="1675" 
d="M1403 1534v-281h-1024v281h1024zM569 289h934v-289h-1288v1055h1274v-279h-920v-137h703v-201h-703v-149z" />
    <glyph glyph-name="eogonek.sc" horiz-adv-x="1675" 
d="M1503 0q-153 -48 -223 -87.5t-70 -84.5q0 -47 93 -47q95 0 161 22l11 -213q-88 -26 -244 -26q-155 0 -225 47.5t-70 148.5q0 156 213 240h-934v1055h1274v-279h-920v-137h703v-201h-703v-149h934v-289z" />
    <glyph glyph-name="f.sc" horiz-adv-x="1566" 
d="M1391 758h-830v-185h613v-266h-613v-307h-354v1055h1184v-297z" />
    <glyph glyph-name="g.sc" horiz-adv-x="1769" 
d="M1257 559h351v-469q-138 -54 -333.5 -89.5t-428.5 -35.5q-386 0 -563 126.5t-177 416.5v47q0 286 189 410.5t598 124.5q190 0 352 -26t324 -95l-152 -303q-103 66 -225 92t-283 26q-83 0 -145 -5t-121 -20.5t-97 -41t-60.5 -68.5t-22.5 -102v-29q0 -72 29 -121
t87.5 -75.5t133 -37t180.5 -10.5q196 0 364 45v240z" />
    <glyph glyph-name="gbreve.sc" horiz-adv-x="1769" 
d="M805 1143q-127 0 -226 36.5t-161 101t-93.5 150.5t-31.5 189h317q0 -88 48.5 -152.5t146.5 -64.5q51 0 89 19t59 51t30.5 68.5t9.5 78.5h318q0 -103 -30.5 -188.5t-91.5 -150.5t-159 -101.5t-225 -36.5zM1257 559h351v-469q-138 -54 -333.5 -89.5t-428.5 -35.5
q-386 0 -563 126.5t-177 416.5v47q0 286 189 410.5t598 124.5q190 0 352 -26t324 -95l-152 -303q-103 66 -225 92t-283 26q-83 0 -145 -5t-121 -20.5t-97 -41t-60.5 -68.5t-22.5 -102v-29q0 -72 29 -121t87.5 -75.5t133 -37t180.5 -10.5q196 0 364 45v240z" />
    <glyph glyph-name="uni0123.sc" horiz-adv-x="1769" 
d="M1257 559h351v-469q-138 -54 -333.5 -89.5t-428.5 -35.5q-386 0 -563 126.5t-177 416.5v47q0 286 189 410.5t598 124.5q190 0 352 -26t324 -95l-152 -303q-103 66 -225 92t-283 26q-83 0 -145 -5t-121 -20.5t-97 -41t-60.5 -68.5t-22.5 -102v-29q0 -72 29 -121
t87.5 -75.5t133 -37t180.5 -10.5q196 0 364 45v240zM791 -92q144 0 227.5 -65.5t83.5 -186.5q0 -96 -45 -163t-124 -98.5t-185.5 -41t-229.5 9.5l27 178q130 -24 207 -12.5t108 47t31 102.5v5q-39 -66 -156 -66q-78 0 -127 32t-49 97q0 75 56 118.5t176 43.5z" />
    <glyph glyph-name="gdotaccent.sc" horiz-adv-x="1769" 
d="M799 1194q-98 0 -151.5 54.5t-53.5 152.5q0 95 53 144.5t152 49.5q100 0 155.5 -50t55.5 -144q0 -98 -56 -152.5t-155 -54.5zM1257 559h351v-469q-138 -54 -333.5 -89.5t-428.5 -35.5q-386 0 -563 126.5t-177 416.5v47q0 286 189 410.5t598 124.5q190 0 352 -26t324 -95
l-152 -303q-103 66 -225 92t-283 26q-83 0 -145 -5t-121 -20.5t-97 -41t-60.5 -68.5t-22.5 -102v-29q0 -72 29 -121t87.5 -75.5t133 -37t180.5 -10.5q196 0 364 45v240z" />
    <glyph glyph-name="h.sc" horiz-adv-x="1865" 
d="M1294 1053h357v-1053h-357v381h-725v-381h-354v1053h354v-394h725v394z" />
    <glyph glyph-name="hbar.sc" horiz-adv-x="2019" 
d="M1862 907v-225h-111v-682h-354v283h-774v-283h-357v682h-108v225h108v148h357v-148h774v148h354v-148h111zM1397 537v145h-774v-145h774z" />
    <glyph glyph-name="i.sc" horiz-adv-x="784" 
d="M215 0v1055h354v-1055h-354z" />
    <glyph glyph-name="iacute.sc" horiz-adv-x="784" 
d="M815 1450l-483 -299l-117 141l426 402zM215 0v1055h354v-1055h-354z" />
    <glyph glyph-name="icircumflex.sc" horiz-adv-x="784" 
d="M485 1694l389 -402l-114 -141l-367 248l-366 -248l-117 141l389 402h186zM215 0v1055h354v-1055h-354z" />
    <glyph glyph-name="idieresis.sc" horiz-adv-x="784" 
d="M117 1192q-100 0 -153.5 54.5t-53.5 154.5q0 95 53.5 143.5t153.5 48.5q98 0 153.5 -49t55.5 -143q0 -99 -56 -154t-153 -55zM672 1192q-98 0 -151.5 54.5t-53.5 154.5q0 94 53 143t152 49q100 0 155.5 -49t55.5 -143q0 -99 -56 -154t-155 -55zM215 0v1055h354v-1055
h-354z" />
    <glyph glyph-name="i.sc.loclTRK" horiz-adv-x="784" 
d="M389 1194q-98 0 -151.5 54.5t-53.5 152.5q0 95 53 144.5t152 49.5q100 0 155.5 -50t55.5 -144q0 -98 -56 -152.5t-155 -54.5zM215 0v1055h354v-1055h-354z" />
    <glyph glyph-name="igrave.sc" horiz-adv-x="784" 
d="M-18 1450l172 244l428 -402l-117 -141zM215 0v1055h354v-1055h-354z" />
    <glyph glyph-name="imacron.sc" horiz-adv-x="784" 
d="M905 1262h-1024v280h1024v-280zM215 0v1055h354v-1055h-354z" />
    <glyph glyph-name="iogonek.sc" horiz-adv-x="784" 
d="M408 -221q95 0 161 22l11 -213q-88 -26 -244 -26q-155 0 -225 47.5t-70 148.5q0 158 219 242h-45v1055h354v-1006l39 -51q-153 -48 -223 -87.5t-70 -84.5q0 -47 93 -47z" />
    <glyph glyph-name="j.sc" horiz-adv-x="1495" 
d="M57 145l168 267q141 -152 402 -152q78 0 137 14.5t108 50t75 101.5t26 162v467h356v-426q0 -184 -39 -309.5t-125.5 -205t-217 -114.5t-320.5 -35q-183 0 -322.5 40.5t-247.5 139.5z" />
    <glyph glyph-name="k.sc" horiz-adv-x="1826" 
d="M1747 1053l-596 -418l575 -635h-481l-379 436l-297 -207v-229h-354v1055h354v-459l676 457h502z" />
    <glyph glyph-name="uni0137.sc" horiz-adv-x="1826" 
d="M1747 1053l-596 -418l575 -635h-481l-379 436l-297 -207v-229h-354v1055h354v-459l676 457h502zM862 -92q144 0 228 -65.5t84 -186.5q0 -96 -45 -163t-124 -98.5t-185.5 -41t-229.5 9.5l26 178q130 -24 207 -12.5t108.5 47t31.5 102.5v5q-39 -66 -156 -66q-78 0 -127 32
t-49 97q0 75 55.5 118.5t175.5 43.5z" />
    <glyph glyph-name="l.sc" horiz-adv-x="1456" 
d="M569 309h817v-309h-1171v1055h354v-746z" />
    <glyph glyph-name="lacute.sc" horiz-adv-x="1456" 
d="M815 1450l-483 -299l-117 141l426 402zM569 309h817v-309h-1171v1055h354v-746z" />
    <glyph glyph-name="lcaron.sc" horiz-adv-x="1456" 
d="M569 309h817v-309h-1171v1055h354v-746zM1180 1055l-56 -529h-182v529h238z" />
    <glyph glyph-name="uni013C.sc" horiz-adv-x="1456" 
d="M569 309h817v-309h-1171v1055h354v-746zM809 -92q144 0 227.5 -65.5t83.5 -186.5q0 -96 -45 -163t-123.5 -98.5t-185 -41t-229.5 9.5l26 178q130 -24 207 -12.5t108 47t31 102.5v5q-39 -66 -155 -66q-78 0 -127 32t-49 97q0 75 55.5 118.5t175.5 43.5z" />
    <glyph glyph-name="lslash.sc" horiz-adv-x="1456" 
d="M569 309h817v-309h-1171v348l-209 -115l-135 246l344 189v387h354v-191l336 185l137 -246l-473 -260v-234z" />
    <glyph glyph-name="m.sc" horiz-adv-x="2164" 
d="M1573 1055h377v-1055h-348v547l-388 -486h-270l-383 486v-547h-346v1055h377l493 -627z" />
    <glyph glyph-name="n.sc" horiz-adv-x="1886" 
d="M1323 1053h348v-1053h-356l-754 631v-631h-346v1053h354l754 -625v625z" />
    <glyph glyph-name="nacute.sc" horiz-adv-x="1886" 
d="M1364 1450l-483 -299l-117 141l426 402zM1323 1053h348v-1053h-356l-754 633v-633h-346v1053h354l754 -623v623z" />
    <glyph glyph-name="ncaron.sc" horiz-adv-x="1886" 
d="M1034 1151h-186l-389 403l116 140l367 -246l367 246l114 -140zM1323 1053h348v-1053h-356l-754 633v-633h-346v1053h354l754 -623v623z" />
    <glyph glyph-name="uni0146.sc" horiz-adv-x="1886" 
d="M1323 1053h348v-1053h-356l-754 633v-633h-346v1053h354l754 -623v623zM930 -92q144 0 227.5 -65.5t83.5 -186.5q0 -96 -45 -163t-124 -98.5t-185.5 -41t-229.5 9.5l27 178q130 -24 207 -12.5t108 47t31 102.5v5q-39 -66 -156 -66q-78 0 -127 32t-49 97q0 75 56 118.5
t176 43.5z" />
    <glyph glyph-name="eng.sc" horiz-adv-x="1955" 
d="M1360 1055h348v-826q0 -305 -145.5 -443t-434.5 -138q-274 0 -469 106l123 269q89 -50 152 -70.5t151 -20.5q183 0 246 97l-737 585v-614h-346v1055h354l760 -609z" />
    <glyph glyph-name="ntilde.sc" horiz-adv-x="1886" 
d="M449 1178q-7 114 12.5 199.5t60 135t92 73.5t113.5 24q27 0 49.5 -3t47.5 -13.5t36.5 -15.5t44 -24t41.5 -24q13 -8 34 -23t31 -21.5t24.5 -12t27.5 -5.5q30 0 43 38.5t4 99.5h281q11 -215 -74.5 -325t-214.5 -110q-14 0 -27 1t-26.5 4t-22.5 4.5t-22 7.5t-19 8
t-20.5 10.5t-18 10.5t-20 12t-19.5 12q-7 4 -24 16t-22.5 15.5t-18.5 11t-20 9.5t-17.5 4.5t-20.5 2.5q-68 0 -55 -122h-280zM1323 1053h348v-1053h-356l-754 631v-631h-346v1053h354l754 -625v625z" />
    <glyph glyph-name="o.sc" horiz-adv-x="1810" 
d="M903 -31q-210 0 -363.5 36t-248 106.5t-140 168.5t-45.5 228v47q0 263 191.5 400t605.5 137q211 0 365 -35.5t249.5 -105.5t141 -168t45.5 -228v-47q0 -130 -45.5 -228t-141 -168.5t-249.5 -106.5t-365 -36zM903 276q105 0 183 11t139 37t92 72.5t31 113.5v43
q0 67 -31 113t-92 71t-138.5 36t-183.5 11q-105 0 -182 -11t-137 -36t-90.5 -71t-30.5 -113v-43q0 -129 112.5 -181.5t327.5 -52.5z" />
    <glyph glyph-name="oacute.sc" horiz-adv-x="1810" 
d="M1327 1450l-483 -299l-117 141l426 402zM903 -31q-210 0 -363.5 36t-248 106.5t-140 168.5t-45.5 228v47q0 263 191.5 400t605.5 137q211 0 365 -35.5t249.5 -105.5t141 -168t45.5 -228v-47q0 -130 -45.5 -228t-141 -168.5t-249.5 -106.5t-365 -36zM903 276q105 0 183 11
t139 37t92 72.5t31 113.5v43q0 67 -31 113t-92 71t-138.5 36t-183.5 11q-105 0 -182 -11t-137 -36t-90.5 -71t-30.5 -113v-43q0 -129 112.5 -181.5t327.5 -52.5z" />
    <glyph glyph-name="ocircumflex.sc" horiz-adv-x="1810" 
d="M905 1399l-366 -248l-117 141l389 402h186l389 -402l-114 -141zM903 1092q211 0 365 -35.5t249.5 -105.5t141 -168t45.5 -228v-47q0 -130 -45.5 -228t-141 -168.5t-249.5 -106.5t-365 -36q-210 0 -363.5 36t-248 106.5t-140 168.5t-45.5 228v47q0 263 191.5 400
t605.5 137zM1348 510v43q0 67 -31 113t-92 71t-138.5 36t-183.5 11q-105 0 -182 -11t-137 -36t-90.5 -71t-30.5 -113v-43q0 -129 112.5 -181.5t327.5 -52.5q105 0 183 11t139 37t92 72.5t31 113.5z" />
    <glyph glyph-name="odieresis.sc" horiz-adv-x="1810" 
d="M629 1192q-100 0 -153.5 54.5t-53.5 154.5q0 95 53.5 143.5t153.5 48.5q98 0 153.5 -49t55.5 -143q0 -99 -56 -154t-153 -55zM1184 1192q-98 0 -151.5 54.5t-53.5 154.5q0 94 53 143t152 49q100 0 155.5 -49t55.5 -143q0 -99 -56 -154t-155 -55zM903 -31
q-210 0 -363.5 36t-248 106.5t-140 168.5t-45.5 228v47q0 263 191.5 400t605.5 137q211 0 365 -35.5t249.5 -105.5t141 -168t45.5 -228v-47q0 -130 -45.5 -228t-141 -168.5t-249.5 -106.5t-365 -36zM903 276q105 0 183 11t139 37t92 72.5t31 113.5v43q0 67 -31 113t-92 71
t-138.5 36t-183.5 11q-105 0 -182 -11t-137 -36t-90.5 -71t-30.5 -113v-43q0 -129 112.5 -181.5t327.5 -52.5z" />
    <glyph glyph-name="ograve.sc" horiz-adv-x="1810" 
d="M494 1450l172 244l428 -402l-117 -141zM903 -31q-210 0 -363.5 36t-248 106.5t-140 168.5t-45.5 228v47q0 263 191.5 400t605.5 137q211 0 365 -35.5t249.5 -105.5t141 -168t45.5 -228v-47q0 -130 -45.5 -228t-141 -168.5t-249.5 -106.5t-365 -36zM903 276q105 0 183 11
t139 37t92 72.5t31 113.5v43q0 67 -31 113t-92 71t-138.5 36t-183.5 11q-105 0 -182 -11t-137 -36t-90.5 -71t-30.5 -113v-43q0 -129 112.5 -181.5t327.5 -52.5z" />
    <glyph glyph-name="ohungarumlaut.sc" horiz-adv-x="1810" 
d="M1018 1593l-367 -438l-153 90l274 518zM1595 1470l-460 -337l-127 127l391 434zM903 -31q-210 0 -363.5 36t-248 106.5t-140 168.5t-45.5 228v47q0 263 191.5 400t605.5 137q211 0 365 -35.5t249.5 -105.5t141 -168t45.5 -228v-47q0 -130 -45.5 -228t-141 -168.5
t-249.5 -106.5t-365 -36zM903 276q105 0 183 11t139 37t92 72.5t31 113.5v43q0 67 -31 113t-92 71t-138.5 36t-183.5 11q-105 0 -182 -11t-137 -36t-90.5 -71t-30.5 -113v-43q0 -129 112.5 -181.5t327.5 -52.5z" />
    <glyph glyph-name="omacron.sc" horiz-adv-x="1810" 
d="M1417 1262h-1024v280h1024v-280zM903 -31q-210 0 -363.5 36t-248 106.5t-140 168.5t-45.5 228v47q0 263 191.5 400t605.5 137q211 0 365 -35.5t249.5 -105.5t141 -168t45.5 -228v-47q0 -130 -45.5 -228t-141 -168.5t-249.5 -106.5t-365 -36zM903 276q105 0 183 11t139 37
t92 72.5t31 113.5v43q0 67 -31 113t-92 71t-138.5 36t-183.5 11q-105 0 -182 -11t-137 -36t-90.5 -71t-30.5 -113v-43q0 -129 112.5 -181.5t327.5 -52.5z" />
    <glyph glyph-name="oslash.sc" horiz-adv-x="1810" 
d="M1710 973l-106 -103q100 -120 100 -315v-47q0 -130 -45.5 -228t-141 -168.5t-249.5 -106.5t-365 -36q-251 0 -428 54l-151 -146l-238 205l117 113q-97 123 -97 313v47q0 263 191.5 400t605.5 137q244 0 422 -52l139 136zM1348 510v43q0 67 -31 113t-92 71t-138.5 36
t-183.5 11q-105 0 -182 -11t-137 -36t-90.5 -71t-30.5 -113v-43q0 -129 112.5 -181.5t327.5 -52.5q105 0 183 11t139 37t92 72.5t31 113.5z" />
    <glyph glyph-name="otilde.sc" horiz-adv-x="1810" 
d="M412 1178q-7 114 12.5 199.5t60 135t92 73.5t113.5 24q27 0 49.5 -3t47.5 -13.5t36.5 -15.5t44 -24t41.5 -24q13 -8 34 -23t31 -21.5t24.5 -12t27.5 -5.5q30 0 43 38.5t4 99.5h281q11 -215 -74.5 -325t-214.5 -110q-14 0 -27 1t-26.5 4t-22.5 4.5t-22 7.5t-19 8
t-20.5 10.5t-18 10.5t-20 12t-19.5 12q-8 5 -24 16t-22.5 15t-18.5 11t-19.5 9.5t-17.5 5t-20 2.5q-69 0 -56 -122h-280zM903 -31q-210 0 -363.5 36t-248 106.5t-140 168.5t-45.5 228v47q0 263 191.5 400t605.5 137q211 0 365 -35.5t249.5 -105.5t141 -168t45.5 -228v-47
q0 -130 -45.5 -228t-141 -168.5t-249.5 -106.5t-365 -36zM903 276q105 0 183 11t139 37t92 72.5t31 113.5v43q0 67 -31 113t-92 71t-138.5 36t-183.5 11q-105 0 -182 -11t-137 -36t-90.5 -71t-30.5 -113v-43q0 -129 112.5 -181.5t327.5 -52.5z" />
    <glyph glyph-name="oe.sc" horiz-adv-x="2910" 
d="M1788 289h948v-289h-1302v84q-175 -123 -525 -123q-406 0 -604.5 132.5t-198.5 412.5v47q0 276 201 405t619 129q340 0 508 -108v74h1290v-277h-936v-137h719v-201h-719v-149zM940 279q369 0 494 141v203q-122 155 -494 155q-71 0 -127 -3.5t-112.5 -12.5t-97.5 -26
t-74 -42.5t-49.5 -63.5t-16.5 -87v-33q0 -69 36.5 -116t105.5 -71t148.5 -34t186.5 -10z" />
    <glyph glyph-name="p.sc" horiz-adv-x="1681" 
d="M1114 1055q90 0 159.5 -10t131.5 -35.5t102.5 -68.5t64 -111t23.5 -160q0 -120 -34.5 -203t-101 -128.5t-150 -65t-195.5 -19.5h-553v-254h-346v1055h899zM1077 530q78 0 121 32t43 95q0 62 -40.5 84.5t-123.5 22.5h-516v-234h516z" />
    <glyph glyph-name="thorn.sc" horiz-adv-x="1742" 
d="M1122 930q477 0 477 -385q0 -193 -120 -291t-357 -98h-569v-156h-346v1055h346v-125h569zM1077 434q168 0 168 111q0 55 -40.5 76.5t-127.5 21.5h-524v-209h524z" />
    <glyph glyph-name="q.sc" horiz-adv-x="1810" 
d="M1704 508q0 -380 -393 -492l264 -110l-150 -242l-614 307q-365 15 -535 151.5t-170 385.5v47q0 263 191.5 400t605.5 137q211 0 365 -35.5t249.5 -105.5t141 -168t45.5 -228v-47zM1348 510v43q0 67 -31 113t-92 71t-138.5 36t-183.5 11q-105 0 -182 -11t-137 -36
t-90.5 -71t-30.5 -113v-43q0 -129 112.5 -181.5t327.5 -52.5q105 0 183 11t139 37t92 72.5t31 113.5z" />
    <glyph glyph-name="r.sc" horiz-adv-x="1769" 
d="M1229 0l-303 287h-365v-287h-346v1055h901q120 0 208 -18t155.5 -59.5t102 -115.5t34.5 -180q0 -281 -281 -363l346 -319h-452zM561 760v-211h533q168 0 168 115q0 56 -40.5 76t-127.5 20h-533z" />
    <glyph glyph-name="racute.sc" horiz-adv-x="1769" 
d="M1290 1450l-483 -299l-117 141l426 402zM1229 0l-303 287h-365v-287h-346v1055h901q120 0 208 -18t155.5 -59.5t102 -115.5t34.5 -180q0 -281 -281 -363l346 -319h-452zM561 760v-211h533q168 0 168 115q0 56 -40.5 76t-127.5 20h-533z" />
    <glyph glyph-name="rcaron.sc" horiz-adv-x="1769" 
d="M961 1151h-187l-389 403l117 140l366 -246l367 246l115 -140zM1229 0l-303 287h-365v-287h-346v1055h901q120 0 208 -18t155.5 -59.5t102 -115.5t34.5 -180q0 -281 -281 -363l346 -319h-452zM561 760v-211h533q168 0 168 115q0 56 -40.5 76t-127.5 20h-533z" />
    <glyph glyph-name="uni0157.sc" horiz-adv-x="1769" 
d="M1335 319l346 -319h-452l-303 287h-365v-287h-346v1055h901q120 0 208 -18t155.5 -59.5t102 -115.5t34.5 -180q0 -281 -281 -363zM561 760v-211h533q168 0 168 115q0 56 -40.5 76t-127.5 20h-533zM856 -92q144 0 227.5 -65.5t83.5 -186.5q0 -96 -45 -163t-123.5 -98.5
t-185 -41t-229.5 9.5l26 178q130 -24 207 -12.5t108 47t31 102.5v5q-39 -66 -155 -66q-78 0 -127 32t-49 97q0 75 55.5 118.5t175.5 43.5z" />
    <glyph glyph-name="s.sc" horiz-adv-x="1667" 
d="M834 -37q-451 0 -732 127l99 270q122 -61 257 -90.5t355 -29.5q397 0 397 96q0 57 -125 63l-489 21q-459 19 -459 315q0 192 173 273.5t544 81.5q177 0 332 -21t330 -78l-107 -262q-130 54 -250 75t-336 21q-108 0 -181 -6t-111.5 -18t-54 -26.5t-15.5 -35.5
q0 -33 34.5 -48.5t106.5 -18.5l502 -17q76 -2 135 -9.5t119.5 -28t100 -53t64.5 -87t25 -127.5q0 -197 -179 -292t-535 -95z" />
    <glyph glyph-name="sacute.sc" horiz-adv-x="1667" 
d="M1280 1450l-483 -299l-117 141l426 402zM834 -37q-451 0 -732 127l99 270q122 -61 257 -90.5t355 -29.5q397 0 397 96q0 57 -125 63l-489 21q-459 19 -459 315q0 192 173 273.5t544 81.5q177 0 332 -21t330 -78l-107 -262q-130 54 -250 75t-336 21q-108 0 -181 -6
t-111.5 -18t-54 -26.5t-15.5 -35.5q0 -33 34.5 -48.5t106.5 -18.5l502 -17q76 -2 135 -9.5t119.5 -28t100 -53t64.5 -87t25 -127.5q0 -197 -179 -292t-535 -95z" />
    <glyph glyph-name="scaron.sc" horiz-adv-x="1667" 
d="M950 1151h-186l-389 403l117 140l366 -246l367 246l114 -140zM1104 655q76 -2 135 -9.5t119.5 -28t100 -53t64.5 -87t25 -127.5q0 -197 -179 -292t-535 -95q-451 0 -732 127l99 270q122 -61 257 -90.5t355 -29.5q397 0 397 96q0 57 -125 63l-489 21q-459 19 -459 315
q0 192 173 273.5t544 81.5q177 0 332 -21t330 -78l-107 -262q-130 54 -250 75t-336 21q-108 0 -181 -6t-111.5 -18t-54 -26.5t-15.5 -35.5q0 -33 34.5 -48.5t106.5 -18.5z" />
    <glyph glyph-name="scedilla.sc" horiz-adv-x="1667" 
d="M1548 350q0 -369 -645 -387l-10 -41q154 3 227.5 -41t73.5 -143q0 -56 -24 -94.5t-69.5 -59t-98 -29t-121.5 -8.5q-93 0 -162 11.5t-88 21.5l35 154q66 -23 174 -23q114 0 114 39q0 40 -239 35l30 180q-391 9 -643 125l99 270q122 -61 257 -90.5t355 -29.5q397 0 397 96
q0 57 -125 63l-489 21q-459 19 -459 315q0 192 173 273.5t544 81.5q177 0 332 -21t330 -78l-107 -262q-130 54 -250 75t-336 21q-108 0 -181 -6t-111.5 -18t-54 -26.5t-15.5 -35.5q0 -33 34.5 -48.5t106.5 -18.5l502 -17q76 -2 135 -9.5t119.5 -28t100 -53t64.5 -87
t25 -127.5z" />
    <glyph glyph-name="uni0219.sc" horiz-adv-x="1667" 
d="M1104 655q76 -2 135 -9.5t119.5 -28t100 -53t64.5 -87t25 -127.5q0 -197 -179 -292t-535 -95q-451 0 -732 127l99 270q122 -61 257 -90.5t355 -29.5q397 0 397 96q0 57 -125 63l-489 21q-459 19 -459 315q0 192 173 273.5t544 81.5q177 0 332 -21t330 -78l-107 -262
q-130 54 -250 75t-336 21q-108 0 -181 -6t-111.5 -18t-54 -26.5t-15.5 -35.5q0 -33 34.5 -48.5t106.5 -18.5zM846 -92q144 0 227.5 -65.5t83.5 -186.5q0 -96 -45 -163t-124 -98.5t-185.5 -41t-229.5 9.5l27 178q130 -24 207 -12.5t108 47t31 102.5v5q-39 -66 -155 -66
q-78 0 -127.5 32t-49.5 97q0 75 56 118.5t176 43.5z" />
    <glyph glyph-name="t.sc" horiz-adv-x="1531" 
d="M1442 1053v-297h-498v-756h-356v756h-500v297h1354z" />
    <glyph glyph-name="tbar.sc" horiz-adv-x="1531" 
d="M1442 756h-498v-70h410v-280h-410v-406h-356v406h-416v280h416v70h-500v297h1354v-297z" />
    <glyph glyph-name="tcaron.sc" horiz-adv-x="1531" 
d="M858 1151h-186l-389 403l116 140l367 -246l367 246l114 -140zM1442 1053v-297h-498v-756h-356v756h-500v297h1354z" />
    <glyph glyph-name="uni0163.sc" horiz-adv-x="1531" 
d="M944 0h-123l-20 -78q154 3 227.5 -41t73.5 -143q0 -56 -24.5 -94.5t-69.5 -59t-98 -29t-122 -8.5q-93 0 -161.5 11.5t-87.5 21.5l34 154q66 -23 175 -23q114 0 114 39q0 40 -239 35l36 215h-71v756h-500v297h1354v-297h-498v-756z" />
    <glyph glyph-name="uni021B.sc" horiz-adv-x="1531" 
d="M88 1053h1354v-297h-498v-756h-356v756h-500v297zM754 -92q144 0 227.5 -65.5t83.5 -186.5q0 -96 -45 -163t-124 -98.5t-185.5 -41t-229.5 9.5l27 178q130 -24 207 -12.5t108 47t31 102.5v5q-39 -66 -156 -66q-78 0 -127 32t-49 97q0 75 56 118.5t176 43.5z" />
    <glyph glyph-name="u.sc" horiz-adv-x="1767" 
d="M879 -33q-351 0 -530 158t-179 450v478h356v-465q0 -71 17.5 -125t48.5 -88.5t76.5 -56.5t96.5 -30.5t114 -8.5q362 0 362 309v465h356v-478q0 -292 -180 -450t-538 -158z" />
    <glyph glyph-name="uacute.sc" horiz-adv-x="1767" 
d="M1307 1450l-484 -299l-116 141l426 402zM879 -33q-351 0 -530 158t-179 450v478h356v-465q0 -71 17.5 -125t48.5 -88.5t76.5 -56.5t96.5 -30.5t114 -8.5q362 0 362 309v465h356v-478q0 -292 -180 -450t-538 -158z" />
    <glyph glyph-name="ucircumflex.sc" horiz-adv-x="1767" 
d="M885 1399l-367 -248l-117 141l390 402h186l389 -402l-115 -141zM1241 1053h356v-478q0 -292 -180 -450t-538 -158q-351 0 -530 158t-179 450v478h356v-465q0 -71 17.5 -125t48.5 -88.5t76.5 -56.5t96.5 -30.5t114 -8.5q362 0 362 309v465z" />
    <glyph glyph-name="udieresis.sc" horiz-adv-x="1767" 
d="M608 1192q-100 0 -153.5 54.5t-53.5 154.5q0 95 53.5 143.5t153.5 48.5q98 0 153.5 -49t55.5 -143q0 -99 -56 -154t-153 -55zM1163 1192q-98 0 -151.5 54.5t-53.5 154.5q0 94 53 143t152 49q100 0 155.5 -49t55.5 -143q0 -99 -56 -154t-155 -55zM879 -33q-351 0 -530 158
t-179 450v478h356v-465q0 -71 17.5 -125t48.5 -88.5t76.5 -56.5t96.5 -30.5t114 -8.5q362 0 362 309v465h356v-478q0 -292 -180 -450t-538 -158z" />
    <glyph glyph-name="ugrave.sc" horiz-adv-x="1767" 
d="M473 1450l172 244l428 -402l-117 -141zM879 -33q-351 0 -530 158t-179 450v478h356v-465q0 -71 17.5 -125t48.5 -88.5t76.5 -56.5t96.5 -30.5t114 -8.5q362 0 362 309v465h356v-478q0 -292 -180 -450t-538 -158z" />
    <glyph glyph-name="uhungarumlaut.sc" horiz-adv-x="1767" 
d="M997 1593l-366 -438l-154 90l275 518zM1575 1470l-461 -337l-127 127l391 434zM879 -33q-351 0 -530 158t-179 450v478h356v-465q0 -71 17.5 -125t48.5 -88.5t76.5 -56.5t96.5 -30.5t114 -8.5q362 0 362 309v465h356v-478q0 -292 -180 -450t-538 -158z" />
    <glyph glyph-name="umacron.sc" horiz-adv-x="1767" 
d="M1397 1262h-1024v280h1024v-280zM879 -33q-351 0 -530 158t-179 450v478h356v-465q0 -71 17.5 -125t48.5 -88.5t76.5 -56.5t96.5 -30.5t114 -8.5q362 0 362 309v465h356v-478q0 -292 -180 -450t-538 -158z" />
    <glyph glyph-name="uogonek.sc" horiz-adv-x="1767" 
d="M1241 1053h356v-478q0 -227 -109.5 -374.5t-328.5 -202.5q-116 -39 -170.5 -74.5t-54.5 -75.5q0 -47 92 -47q93 0 162 23l10 -213q-91 -27 -244 -27q-155 0 -225 48t-70 149q0 111 117 190q-301 23 -453.5 179t-152.5 425v478h356v-465q0 -71 17.5 -125t48.5 -88.5
t76.5 -56.5t96.5 -30.5t114 -8.5q362 0 362 309v465z" />
    <glyph glyph-name="uring.sc" horiz-adv-x="1767" 
d="M885 1176q-229 0 -348 78t-119 210v15q0 132 119 210t348 78q227 0 342.5 -77.5t115.5 -210.5v-15q0 -133 -115.5 -210.5t-342.5 -77.5zM885 1389q202 0 202 79v7q0 39 -44.5 58t-157.5 19q-114 0 -161.5 -19t-47.5 -58v-7q0 -79 209 -79zM879 -33q-351 0 -530 158
t-179 450v478h356v-465q0 -71 17.5 -125t48.5 -88.5t76.5 -56.5t96.5 -30.5t114 -8.5q362 0 362 309v465h356v-478q0 -292 -180 -450t-538 -158z" />
    <glyph glyph-name="v.sc" horiz-adv-x="1822" 
d="M1364 1055h408l-682 -1057h-375l-664 1057h408l444 -766z" />
    <glyph glyph-name="w.sc" horiz-adv-x="2318" 
d="M1841 1053h404l-424 -1053h-371l-287 657l-299 -657h-366l-424 1053h403l211 -662l277 641h401l266 -637z" />
    <glyph glyph-name="wacute.sc" horiz-adv-x="2318" 
d="M1585 1450l-483 -299l-117 141l426 402zM1841 1053h404l-424 -1053h-371l-287 657l-299 -657h-366l-424 1053h403l211 -662l277 641h401l266 -637z" />
    <glyph glyph-name="wcircumflex.sc" horiz-adv-x="2318" 
d="M1163 1399l-366 -248l-117 141l389 402h186l390 -402l-115 -141zM1841 1053h404l-424 -1053h-371l-287 657l-299 -657h-366l-424 1053h403l211 -662l277 641h401l266 -637z" />
    <glyph glyph-name="wdieresis.sc" horiz-adv-x="2318" 
d="M885 1192q-100 0 -153.5 54.5t-53.5 154.5q0 95 53.5 143.5t153.5 48.5q98 0 153.5 -49t55.5 -143q0 -99 -56 -154t-153 -55zM1440 1192q-98 0 -151.5 54.5t-53.5 154.5q0 94 53 143t152 49q100 0 155.5 -49t55.5 -143q0 -99 -56 -154t-155 -55zM1841 1053h404
l-424 -1053h-371l-287 657l-299 -657h-366l-424 1053h403l211 -662l277 641h401l266 -637z" />
    <glyph glyph-name="wgrave.sc" horiz-adv-x="2318" 
d="M1350 1292l-117 -141l-483 299l172 244zM1841 1053h404l-424 -1053h-371l-287 657l-299 -657h-366l-424 1053h403l211 -662l277 641h401l266 -637z" />
    <glyph glyph-name="x.sc" horiz-adv-x="1767" 
d="M1731 0h-478l-391 352l-370 -352h-451l590 528l-588 525h479l379 -357l379 357h449l-592 -533z" />
    <glyph glyph-name="y.sc" horiz-adv-x="1771" 
d="M1751 1053l-682 -705v-348h-356v346l-693 707h445l422 -445l420 445h444z" />
    <glyph glyph-name="yacute.sc" horiz-adv-x="1771" 
d="M1309 1450l-484 -299l-116 141l426 402zM1751 1053l-682 -705v-348h-356v346l-693 707h445l422 -445l420 445h444z" />
    <glyph glyph-name="ycircumflex.sc" horiz-adv-x="1771" 
d="M887 1399l-367 -248l-117 141l390 402h186l389 -402l-115 -141zM1751 1053l-682 -705v-348h-356v346l-693 707h445l422 -445l420 445h444z" />
    <glyph glyph-name="ydieresis.sc" horiz-adv-x="1771" 
d="M608 1192q-100 0 -153.5 54.5t-53.5 154.5q0 95 53.5 143.5t153.5 48.5q98 0 153.5 -49t55.5 -143q0 -99 -56 -154t-153 -55zM1163 1192q-98 0 -151.5 54.5t-53.5 154.5q0 94 53 143t152 49q100 0 155.5 -49t55.5 -143q0 -99 -56 -154t-155 -55zM1751 1053l-682 -705
v-348h-356v346l-693 707h445l422 -445l420 445h444z" />
    <glyph glyph-name="ygrave.sc" horiz-adv-x="1771" 
d="M1073 1292l-117 -141l-483 299l172 244zM1751 1053l-682 -705v-348h-356v346l-693 707h445l422 -445l420 445h444z" />
    <glyph glyph-name="z.sc" horiz-adv-x="1646" 
d="M793 303h751v-303h-1372v268l754 492h-785v295h1377v-275z" />
    <glyph glyph-name="zacute.sc" horiz-adv-x="1646" 
d="M1229 1450l-484 -299l-116 141l426 402zM793 303h751v-303h-1372v268l754 492h-785v295h1377v-275z" />
    <glyph glyph-name="zcaron.sc" horiz-adv-x="1646" 
d="M899 1151h-186l-389 403l116 140l367 -246l367 246l114 -140zM793 303h751v-303h-1372v268l754 492h-785v295h1377v-275z" />
    <glyph glyph-name="zdotaccent.sc" horiz-adv-x="1646" 
d="M803 1194q-98 0 -151.5 54.5t-53.5 152.5q0 95 53 144.5t152 49.5q100 0 155.5 -50t55.5 -144q0 -98 -56 -152.5t-155 -54.5zM793 303h751v-303h-1372v268l754 492h-785v295h1377v-275z" />
    <glyph glyph-name="zero.osf" horiz-adv-x="1748" 
d="M872 -37q-400 0 -591 136.5t-191 416.5v29q0 273 191.5 409t590.5 136q400 0 592.5 -136t192.5 -409v-29q0 -280 -191.5 -416.5t-593.5 -136.5zM872 287q98 0 171 10t133.5 34.5t92 70.5t31.5 112v35q0 217 -428 217q-426 0 -426 -217v-35q0 -66 31.5 -112t92 -70.5
t133 -34.5t169.5 -10z" />
    <glyph glyph-name="one.osf" horiz-adv-x="1005" 
d="M506 1053h282v-1053h-352v715l-305 -133l-123 262z" />
    <glyph glyph-name="two.osf" horiz-adv-x="1695" 
d="M750 289h821v-289h-1395v291l735 246q124 44 168.5 72.5t44.5 72.5q0 50 -61.5 69t-220.5 19q-191 0 -362.5 -35t-293.5 -98l-69 295q259 160 770 160q114 0 203.5 -9t168.5 -32.5t130.5 -61.5t81.5 -98.5t30 -140.5q0 -54 -11.5 -100t-30 -82t-52 -67t-66.5 -53.5
t-86 -42.5t-97.5 -34t-114.5 -28.5t-123 -23.5t-136 -22z" />
    <glyph glyph-name="three.osf" horiz-adv-x="1679" 
d="M1335 422q122 -27 190 -103.5t68 -203.5q0 -209 -182.5 -319.5t-552.5 -110.5q-203 0 -359 37t-259.5 100t-192.5 160l213 245q112 -125 241 -170t359 -45q210 0 295.5 34t85.5 101t-74.5 93t-259.5 26h-358v262h358q152 0 215.5 32t63.5 93q0 117 -291 117
q-207 0 -364 -44t-281 -144l-187 249q158 136 358.5 197.5t481.5 61.5q152 0 265 -18t200 -58.5t131.5 -112.5t44.5 -174q0 -116 -54.5 -193.5t-154.5 -111.5z" />
    <glyph glyph-name="four.osf" horiz-adv-x="1697" 
d="M1663 305v-307h-244v-256h-352v256h-983v283l553 772h448l-548 -748h530v342h352v-342h244z" />
    <glyph glyph-name="five.osf" horiz-adv-x="1650" 
d="M1075 537q233 0 352 -85.5t119 -267.5q0 -232 -192 -360.5t-578 -128.5q-397 0 -688 141l123 303q114 -61 246 -91t319 -30q215 0 315.5 40t100.5 110q0 58 -48.5 77t-164.5 19h-750v789h1213v-320h-875v-196h508z" />
    <glyph glyph-name="six.osf" horiz-adv-x="1783" 
d="M1032 872q323 0 479 -102t156 -319q0 -113 -38.5 -199t-103.5 -140t-162 -88t-203 -47.5t-236 -13.5q-422 0 -621 172t-199 514v78q0 344 204 518t636 174q254 0 418 -54.5t303 -207.5l-250 -239q-106 174 -471 174q-113 0 -198 -18.5t-151 -59.5t-100 -112.5t-34 -172.5
v-6q146 149 571 149zM920 291q395 0 395 160q0 151 -395 151q-191 0 -298.5 -38t-107.5 -111q0 -67 102.5 -114.5t303.5 -47.5z" />
    <glyph glyph-name="seven.osf" horiz-adv-x="1533" 
d="M23 1053h1450v-283l-742 -1051h-481l749 1014h-976v320z" />
    <glyph glyph-name="eight.osf" horiz-adv-x="1890" 
d="M1485 709q278 -62 278 -334q0 -97 -37 -169t-104 -118t-171 -74.5t-225 -39.5t-280 -11q-160 0 -281.5 11t-225.5 39.5t-170.5 74.5t-104 118t-37.5 169q0 267 285 334q-242 68 -242 309q0 90 34.5 158.5t98 114.5t160.5 74.5t214.5 41t268.5 12.5t268.5 -12.5t214.5 -41
t160.5 -74.5t98 -114.5t34.5 -158.5q0 -242 -237 -309zM946 1092q-164 0 -259.5 -16.5t-130 -44.5t-34.5 -73q0 -46 34.5 -73t128 -41.5t261.5 -14.5q167 0 260.5 14.5t127.5 41.5t34 73q0 45 -34.5 73t-129.5 44.5t-258 16.5zM946 291q176 0 279.5 17.5t144.5 48.5t41 81
q0 49 -40 79t-143.5 46.5t-281.5 16.5q-179 0 -283 -16.5t-144 -46.5t-40 -79q0 -76 103.5 -111.5t363.5 -35.5z" />
    <glyph glyph-name="nine.osf" horiz-adv-x="1761" 
d="M844 1090q421 0 619 -172.5t198 -518.5v-71q0 -325 -205 -490.5t-631 -165.5q-277 0 -439 42.5t-320 174.5l208 275q137 -166 529 -166q502 0 502 313v47q-148 -151 -574 -151q-315 0 -466.5 102.5t-151.5 321.5q0 106 38 186.5t102.5 131.5t159.5 83.5t199.5 45
t231.5 12.5zM844 477q192 0 298.5 35t106.5 104q0 59 -102.5 102.5t-298.5 43.5q-381 0 -381 -144q0 -72 92.5 -106.5t284.5 -34.5z" />
    <glyph glyph-name="caroncomb.alt" 
d="M-47 1524l-55 -529h-183v529h238z" />
    <glyph glyph-name="uni0308.case" 
d="M-811 1092q-100 0 -153.5 53t-53.5 153q0 95 53.5 145t153.5 50q98 0 153.5 -50.5t55.5 -144.5q0 -99 -55.5 -152.5t-153.5 -53.5zM-256 1092q-98 0 -151.5 53t-53.5 153q0 95 53 145t152 50t155 -50.5t56 -144.5q0 -99 -56 -152.5t-155 -53.5z" />
    <glyph glyph-name="uni0307.case" 
d="M-256 1092q-98 0 -151.5 54t-53.5 152q0 95 53 145t152 50t155 -50.5t56 -144.5q0 -98 -56 -152t-155 -54z" />
    <glyph glyph-name="gravecomb.case" 
d="M-604 1348l172 243l428 -401l-117 -141z" />
    <glyph glyph-name="acutecomb.case" 
d="M-20 1348l-484 -299l-117 141l426 401z" />
    <glyph glyph-name="uni030B.case" 
d="M-598 1491l-367 -438l-153 90l274 518zM-20 1368l-461 -338l-127 127l391 434z" />
    <glyph glyph-name="uni0302.case" 
d="M-37 1190l-115 -141l-366 247l-367 -247l-116 141l389 401h186z" />
    <glyph glyph-name="uni030C.case" 
d="M-152 1591l115 -139l-389 -403h-186l-389 403l116 139l367 -245z" />
    <glyph glyph-name="uni0306.case" 
d="M-547 1040q-127 0 -226 36.5t-161 101.5t-93.5 151t-31.5 189h318q0 -56 18 -103t63.5 -81t112.5 -34q51 0 89.5 19t59 51.5t30.5 69t10 78.5h317q0 -103 -30.5 -189t-91.5 -151t-159 -101.5t-225 -36.5z" />
    <glyph glyph-name="uni030A.case" 
d="M-483 1040q-467 0 -467 291v15q0 288 467 288q245 0 351.5 -75.5t106.5 -212.5v-15q0 -291 -458 -291zM-483 1255q202 0 202 78v8q0 38 -45 58t-157 20q-209 0 -209 -78v-8q0 -78 209 -78z" />
    <glyph glyph-name="tildecomb.case" 
d="M-987 1075q-7 114 12.5 199.5t60 135t92 73.5t113.5 24q27 0 49.5 -3t48.5 -14t36 -15.5t44 -24t42 -23.5q12 -8 33 -22.5t31 -21t24.5 -12t27.5 -5.5q30 0 43 38t4 99h281q11 -215 -74.5 -324.5t-214.5 -109.5q-16 0 -31.5 2t-26.5 3.5t-26.5 7.5t-22 8t-23 11t-20 11
t-22.5 13.5t-22 13.5q-7 4 -24 16t-22.5 15.5t-18.5 11t-20 9.5t-17.5 4.5t-20.5 2.5q-69 0 -56 -123h-280z" />
    <glyph glyph-name="uni0304.case" 
d="M-94 1159h-1024v281h1024v-281z" />
    <glyph glyph-name="uni0312.case" 
 />
    <glyph glyph-name="uni0326.case" 
d="M-332 -92q144 0 228 -65.5t84 -186.5q0 -96 -45 -163t-124 -98.5t-185.5 -41t-229.5 9.5l26 178q130 -24 207 -12.5t108.5 47t31.5 102.5v5q-39 -66 -156 -66q-78 0 -127 32t-49 97q0 75 55.5 118.5t175.5 43.5z" />
    <glyph glyph-name="uni0327.case" 
d="M-322 -66q155 2 228.5 -42t73.5 -142q0 -56 -25 -95t-71.5 -59t-100 -28t-123.5 -8q-91 0 -157 10.5t-87 19.5l35 156q72 -25 166 -25q123 0 123 39q0 42 -240 37l39 230h162z" />
    <glyph glyph-name="uni0328.case" 
d="M-293 -436q-155 0 -225 46.5t-70 147.5q0 60 32 112t82.5 87.5t117.5 62t134 41t134 19.5l68 -80q-136 -33 -214.5 -80.5t-78.5 -93.5q0 -47 92 -47q96 0 162 22l10 -213q-81 -24 -244 -24z" />
    <glyph glyph-name="caron.alt" horiz-adv-x="368" 
d="M346 1483l-143 -561l-183 24l33 590z" />
    </font>
</defs>
</svg>
