<?xml version="1.0" standalone="no"?>
<!DOCTYPE svg PUBLIC "-//W3C//DTD SVG 1.1//EN" "http://www.w3.org/Graphics/SVG/1.1/DTD/svg11.dtd" >
<svg xmlns="http://www.w3.org/2000/svg" xmlns:xlink="http://www.w3.org/1999/xlink" version="1.1">
<metadata>
Created by FontForge 20170731 at Wed Feb 10 17:24:59 2021
 By Aleksey,,,
Copyright (c) 2017 by Emil Bertell. All rights reserved.
</metadata>
<defs>
<font id="Praktika-BoldExtended" horiz-adv-x="0" >
  <font-face 
    font-family="Praktika Bold Extended"
    font-weight="700"
    font-stretch="expanded"
    units-per-em="2048"
    panose-1="0 0 8 5 0 0 0 0 0 0"
    ascent="1638"
    descent="-410"
    x-height="954"
    cap-height="1378"
    bbox="-1968 -603.502 3326 2347"
    underline-thickness="102"
    underline-position="-307"
    unicode-range="U+0020-25CA"
  />
<missing-glyph horiz-adv-x="962" 
d="M788 1530v-1923h-610v1923h610zM641 1401h-317v-64h125v-71h-127v-64h319v64h-127v71h127v64zM514 1153h-192v-201h319v66h-127v135zM449 1087v-69h-64v69h64zM641 901h-319v-63h127v-72h-127v-64h192v136h127v63zM641 786h-63v-127h-256v-65h319v192zM641 551h-192v-109
h65v45h64v-90h-193v154h-63v-217h319v217zM641 219h-319v-219h319v219zM578 156v-93h-193v93h193zM641 -43h-319v-63h135l-135 -91v-63h319v63h-197l136 91h61v63z" />
    <glyph glyph-name=".notdef" horiz-adv-x="962" 
d="M788 1530v-1923h-610v1923h610zM641 1401h-317v-64h125v-71h-127v-64h319v64h-127v71h127v64zM514 1153h-192v-201h319v66h-127v135zM449 1087v-69h-64v69h64zM641 901h-319v-63h127v-72h-127v-64h192v136h127v63zM641 786h-63v-127h-256v-65h319v192zM641 551h-192v-109
h65v45h64v-90h-193v154h-63v-217h319v217zM641 219h-319v-219h319v219zM578 156v-93h-193v93h193zM641 -43h-319v-63h135l-135 -91v-63h319v63h-197l136 91h61v63z" />
    <glyph glyph-name=".null" 
 />
    <glyph glyph-name="nonmarkingreturn" horiz-adv-x="682" 
 />
    <glyph glyph-name="space" unicode=" " horiz-adv-x="544" 
 />
    <glyph glyph-name="exclam" unicode="!" horiz-adv-x="792" 
d="M258 365v1013h264v-1013h-264zM393 -33q-178 0 -178 144q0 69 42.5 103t135.5 34q185 0 185 -137q0 -144 -185 -144z" />
    <glyph glyph-name="quotedbl" unicode="&#x22;" horiz-adv-x="1124" 
d="M178 1448h264l-24 -621h-213zM631 1448h262l-23 -621h-213z" />
    <glyph glyph-name="numbersign" unicode="#" horiz-adv-x="2109" 
d="M1978 881h-282l-113 -412h301l-49 -215h-311l-70 -254h-244l70 254h-711l-69 -254h-246l70 254h-244l51 215h252l113 412h-271l49 215h279l78 282h246l-78 -282h710l78 282h244l-78 -282h277zM1339 469l113 412h-711l-112 -412h710z" />
    <glyph glyph-name="dollar" unicode="$" horiz-adv-x="1755" 
d="M1653 440q0 -89 -44 -157.5t-126.5 -113t-194 -70t-254.5 -33.5v-164h-264v164q-225 7 -384.5 51t-289.5 133l111 213q122 -89 287.5 -133.5t420.5 -44.5q240 0 357 41t117 116q0 63 -64 95t-215 41l-461 28q-514 33 -514 352q0 177 158 264.5t477 96.5v129h264v-131
q343 -23 602 -152l-98 -213q-142 78 -315.5 114t-419.5 36q-218 0 -310 -34t-92 -105q0 -65 73.5 -101.5t246.5 -46.5l362 -22q117 -6 203.5 -19.5t158.5 -39.5t116 -65t68 -96t24 -133z" />
    <glyph glyph-name="percent" unicode="%" horiz-adv-x="2426" 
d="M655 745q-106 0 -191.5 15.5t-154.5 49t-107 93t-38 141.5v64q0 82 38 141t107 92.5t154.5 48.5t191.5 15q109 0 196 -15t157.5 -48.5t109.5 -92.5t39 -141v-64q0 -82 -39 -141.5t-109.5 -93t-158 -49t-195.5 -15.5zM184 0l1690 1378h350l-1673 -1378h-367zM655 918
q301 0 301 137v43q0 137 -301 137q-290 0 -290 -137v-43q0 -137 290 -137zM1761 -35q-106 0 -191.5 15.5t-154.5 49t-107 93t-38 141.5v64q0 82 38 141t107 92.5t154.5 48.5t191.5 15q109 0 196 -15t157.5 -48.5t109.5 -92.5t39 -141v-64q0 -82 -39 -141.5t-109.5 -93
t-158 -49t-195.5 -15.5zM1761 137q301 0 301 137v43q0 138 -301 138q-291 0 -291 -138v-43q0 -137 291 -137z" />
    <glyph glyph-name="ampersand" unicode="&#x26;" horiz-adv-x="1798" 
d="M1794 799v-197h-168v-102q0 -107 -26 -191.5t-77.5 -142.5t-119 -98t-159 -62t-188 -31.5t-216.5 -9.5q-360 0 -541.5 97t-181.5 321q0 278 282 332q-115 31 -181 112.5t-66 200.5q0 385 669 385q253 0 431.5 -36t349.5 -140l-93 -215q-134 82 -297.5 117t-380.5 35
q-409 0 -409 -197q0 -178 315 -178h1057zM1380 506v96h-643q-181 0 -267.5 -41.5t-86.5 -148.5q0 -203 442 -203q111 1 191.5 8t152.5 26t116 51.5t69.5 85.5t25.5 126z" />
    <glyph glyph-name="quotesingle" unicode="'" horiz-adv-x="671" 
d="M205 1448h262l-23 -621h-213z" />
    <glyph glyph-name="parenleft" unicode="(" horiz-adv-x="1017" 
d="M995 -326q-461 0 -688 237t-227 738v80q0 482 227 711t688 229v-239q-120 0 -218 -23t-179.5 -75t-136 -132.5t-85 -199t-30.5 -271.5v-80q0 -160 30.5 -284.5t85 -208.5t136 -138t179.5 -78t218 -24v-242z" />
    <glyph glyph-name="parenright" unicode=")" horiz-adv-x="1017" 
d="M23 -326v242q120 0 218 24t179.5 78t136 138t85 208.5t30.5 284.5v80q0 153 -30.5 271.5t-85 199t-136 132.5t-179.5 75t-218 23v239q461 0 688 -229t227 -711v-80q0 -501 -227 -738t-688 -237z" />
    <glyph glyph-name="asterisk" unicode="*" horiz-adv-x="1140" 
d="M1067 1016l-385 -45l270 -285l-202 -145l-183 346l-182 -346l-203 145l273 285l-381 45l63 239l363 -147l-54 371h248l-47 -369l357 145z" />
    <glyph glyph-name="plus" unicode="+" horiz-adv-x="1404" 
d="M1339 737v-186h-532v-399h-209v399h-532v186h532v402h209v-402h532z" />
    <glyph glyph-name="comma" unicode="," horiz-adv-x="552" 
d="M264 279q125 0 203 -76t78 -228q0 -185 -146 -286.5t-432 -73.5l19 160q186 -17 291.5 35.5t105.5 160.5q0 47 -27 84q-29 -75 -139 -75q-64 0 -103.5 35t-39.5 104q0 76 49.5 118t140.5 42z" />
    <glyph glyph-name="hyphen" unicode="-" horiz-adv-x="1249" 
d="M1133 494h-1016v211h1016v-211z" />
    <glyph glyph-name="period" unicode="." horiz-adv-x="522" 
d="M258 -33q-85 0 -131.5 43.5t-46.5 122.5q0 75 46.5 115.5t131.5 40.5q87 0 135.5 -40.5t48.5 -115.5q0 -79 -48.5 -122.5t-135.5 -43.5z" />
    <glyph glyph-name="slash" unicode="/" horiz-adv-x="866" 
d="M307 -301h-268l520 1911h268z" />
    <glyph glyph-name="zero" unicode="0" horiz-adv-x="1837" 
d="M913 -35q-386 0 -592 169t-206 517v78q0 347 206 515.5t592 168.5q391 0 600 -168.5t209 -515.5v-78q0 -348 -209 -517t-600 -169zM913 209q122 0 218.5 24.5t170.5 75.5t114 137t40 203v82q0 117 -40 202.5t-114 136.5t-170.5 75t-218.5 24q-119 0 -214 -24t-167.5 -75
t-111.5 -136.5t-39 -202.5v-82q0 -117 39 -203t111.5 -137t167.5 -75.5t214 -24.5z" />
    <glyph glyph-name="one" unicode="1" horiz-adv-x="954" 
d="M496 1378h213v-1378h-263v1124l-315 -139l-92 197z" />
    <glyph glyph-name="two" unicode="2" horiz-adv-x="1679" 
d="M664 238h958v-238h-1446v229l666 351q201 110 283.5 192.5t82.5 181.5q0 220 -372 220q-186 0 -345 -65.5t-253 -199.5l-162 166q77 120 203.5 197t270.5 109t316 32q613 0 613 -426q0 -192 -121.5 -329.5t-390.5 -266.5z" />
    <glyph glyph-name="three" unicode="3" horiz-adv-x="1644" 
d="M1268 719q284 -50 284 -303q0 -216 -188.5 -333.5t-532.5 -117.5q-286 0 -466 74t-304 240l175 182q70 -94 148 -148t184.5 -79t262.5 -25q235 0 345 57t110 158q0 100 -88 138t-278 38h-400v199h400q315 0 315 178q0 98 -94 147.5t-271 49.5q-437 0 -608 -273l-172 156
q212 356 789 356q626 0 626 -393q0 -112 -63 -190t-174 -111z" />
    <glyph glyph-name="four" unicode="4" horiz-adv-x="1652" 
d="M1620 457v-228h-264v-229h-262v229h-1051v211l772 938h350l-768 -921h697v417h262v-417h264z" />
    <glyph glyph-name="five" unicode="5" horiz-adv-x="1619" 
d="M967 823q199 0 320 -45.5t172.5 -131.5t51.5 -222q0 -233 -187.5 -346t-541.5 -113q-256 0 -418 53.5t-290 190.5l133 207q96 -112 223.5 -161.5t337.5 -49.5q251 0 365 53.5t114 157.5q0 111 -77.5 151.5t-249.5 40.5h-734v770h1241v-237h-989v-318h529z" />
    <glyph glyph-name="six" unicode="6" horiz-adv-x="1753" 
d="M987 842q332 0 488.5 -99t156.5 -307q0 -471 -723 -471q-395 0 -593.5 162t-198.5 510v90q0 351 204.5 518.5t604.5 167.5q245 0 413.5 -62t292.5 -225l-188 -178q-117 221 -518 221q-128 0 -226 -24t-170 -76t-109.5 -137t-37.5 -203v-70q143 183 604 183zM907 211
q225 0 343 57.5t118 167.5q0 103 -111.5 154t-349.5 51q-217 0 -346 -52.5t-129 -150.5q0 -28 14 -57t49.5 -60t87.5 -55t136 -39.5t188 -15.5z" />
    <glyph glyph-name="seven" unicode="7" horiz-adv-x="1480" 
d="M14 1378h1395v-211l-774 -1167h-359l791 1141h-1053v237z" />
    <glyph glyph-name="eight" unicode="8" horiz-adv-x="1863" 
d="M1413 707q324 -59 324 -338q0 -92 -36.5 -161.5t-102.5 -115.5t-167.5 -74.5t-222.5 -40.5t-276 -12t-276 12t-222.5 40.5t-167.5 74.5t-102.5 115.5t-36.5 161.5q0 278 326 338q-146 32 -214.5 110.5t-68.5 204.5q0 107 51 183.5t152 121.5t238 65.5t321 20.5
t320.5 -20.5t237 -65.5t151.5 -121.5t51 -183.5q0 -253 -279 -315zM932 1167q-184 0 -296 -23t-157 -63t-45 -102q0 -64 43.5 -102.5t154 -59t300.5 -20.5q189 0 298.5 20.5t153 59t43.5 102.5q0 62 -44 102t-155.5 63t-295.5 23zM932 211q197 0 318 24t172 67.5t51 111.5
q0 67 -49 108.5t-169.5 63.5t-322.5 22t-322.5 -22t-169.5 -63.5t-49 -108.5q0 -68 50.5 -111.5t171.5 -67.5t319 -24z" />
    <glyph glyph-name="nine" unicode="9" horiz-adv-x="1730" 
d="M829 1413q394 0 590.5 -163t196.5 -517v-84q0 -684 -793 -684q-252 0 -425.5 62.5t-295.5 224.5l187 176q121 -219 520 -219q541 0 541 418q0 59 -2 86q-67 -91 -219 -142t-384 -51q-332 0 -487.5 105t-155.5 325q0 463 727 463zM827 723q216 0 344.5 56.5t128.5 160.5
q0 28 -14.5 57t-49.5 60t-86.5 55t-134.5 39.5t-184 15.5q-226 0 -345 -57.5t-119 -167.5q0 -109 111.5 -164t348.5 -55z" />
    <glyph glyph-name="colon" unicode=":" horiz-adv-x="522" 
d="M258 616q-85 0 -131.5 43.5t-46.5 122.5q0 75 46.5 115.5t131.5 40.5q87 0 135.5 -40.5t48.5 -115.5q0 -79 -48.5 -122.5t-135.5 -43.5zM258 29q-85 0 -131.5 43.5t-46.5 122.5q0 75 46.5 115t131.5 40q87 0 135.5 -40.5t48.5 -114.5q0 -79 -48.5 -122.5t-135.5 -43.5z
" />
    <glyph glyph-name="semicolon" unicode=";" horiz-adv-x="552" 
d="M256 637q-85 0 -131.5 43.5t-46.5 122.5q0 75 46.5 115t131.5 40q87 0 135.5 -40.5t48.5 -114.5q0 -79 -48.5 -122.5t-135.5 -43.5zM264 262q125 0 203 -75.5t78 -227.5q0 -185 -146 -286.5t-432 -73.5l19 159q186 -17 291.5 36t105.5 161q0 47 -27 84q-29 -76 -139 -76
q-64 0 -103.5 35t-39.5 104q0 76 49.5 118t140.5 42z" />
    <glyph glyph-name="less" unicode="&#x3c;" horiz-adv-x="1312" 
d="M1227 926l-887 -287l887 -283l-53 -233l-1086 393v244l1086 397z" />
    <glyph glyph-name="equal" unicode="=" horiz-adv-x="1404" 
d="M66 754v186h1273v-186h-1273zM66 338v186h1273v-186h-1273z" />
    <glyph glyph-name="greater" unicode="&#x3e;" horiz-adv-x="1312" 
d="M139 1157l1086 -397v-244l-1086 -393l-53 233l887 283l-887 287z" />
    <glyph glyph-name="question" unicode="?" horiz-adv-x="1679" 
d="M551 389q-10 89 5.5 154.5t44.5 104.5t84.5 65t106.5 37.5t130 21.5q152 21 219 65t67 136q0 100 -89.5 150.5t-282.5 50.5t-350.5 -63.5t-256.5 -195.5l-151 177q122 164 318 242.5t444 78.5q150 0 264 -22t200 -70t130.5 -130t44.5 -196q0 -183 -108 -290t-316 -127
q-58 -8 -94.5 -16t-70.5 -21.5t-51 -33t-26 -48.5t-6 -70h-256zM676 -33q-178 0 -178 144q0 69 42.5 103t135.5 34q184 0 184 -137q0 -144 -184 -144z" />
    <glyph glyph-name="at" unicode="@" horiz-adv-x="2318" 
d="M1198 1403q178 0 327.5 -27t274.5 -85.5t212 -147.5t135 -217.5t48 -290.5v-60q0 -103 -25 -183.5t-65.5 -129.5t-97 -80t-113 -43t-120.5 -12q-186 0 -267 104q-64 -51 -167 -84.5t-218 -33.5q-97 0 -176.5 18t-147.5 58.5t-106.5 114.5t-38.5 177v45q0 80 26 143
t68.5 103t102 66t122.5 36.5t134 10.5q231 0 342 -105v76h199v-350q0 -199 137 -199q83 0 131 65.5t49 188.5v74q0 268 -201 412.5t-565 144.5q-386 0 -600.5 -157t-214.5 -445v-86q0 -304 213 -464.5t629 -160.5q171 0 376 26t297 58l13 -215q-132 -35 -315.5 -58.5
t-368.5 -23.5q-196 0 -358 28.5t-297 92t-227.5 160.5t-143.5 237.5t-51 319.5v86q0 168 52 304t144.5 230t224.5 157.5t288 92.5t339 29zM1151 303q188 0 289 94q-8 44 -8 111v113q-92 69 -281 75q-127 3 -203 -40.5t-76 -141.5v-16q0 -195 279 -195z" />
    <glyph glyph-name="A" unicode="A" horiz-adv-x="1738" 
d="M1384 0l-106 238h-819l-105 -238h-293l644 1389h327l645 -1389h-293zM553 451h631l-316 708z" />
    <glyph glyph-name="B" unicode="B" horiz-adv-x="1775" 
d="M1366 735q131 -21 213 -112.5t82 -223.5q0 -193 -118 -296t-335 -103h-991v1378h938q201 0 305.5 -88.5t104.5 -249.5q0 -110 -54.5 -190t-144.5 -115zM1300 985q0 156 -188 156h-637v-340h623q86 0 144 48.5t58 135.5zM1165 240q120 0 175 53.5t55 144.5q0 84 -56 131
t-147 47h-717v-376h690z" />
    <glyph glyph-name="C" unicode="C" horiz-adv-x="1765" 
d="M1696 336q-117 -190 -307.5 -280.5t-468.5 -90.5q-386 0 -589.5 168.5t-203.5 517.5v78q0 347 204 515.5t589 168.5q124 0 229 -16t204.5 -53.5t181.5 -105t140 -163.5l-200 -168q-94 135 -227.5 198.5t-327.5 63.5q-119 0 -213 -24t-165.5 -75t-110 -136.5t-38.5 -202.5
v-82q0 -117 38.5 -203t110 -137t165.5 -75.5t213 -24.5q206 0 340.5 66t228.5 219z" />
    <glyph glyph-name="D" unicode="D" horiz-adv-x="1865" 
d="M965 1378q375 0 575.5 -160.5t200.5 -492.5v-70q0 -172 -52 -298t-153.5 -204t-243 -115.5t-327.5 -37.5h-748v1378h748zM1475 653v74q0 215 -128.5 311.5t-381.5 96.5h-484v-891h484q255 0 382.5 94t127.5 315z" />
    <glyph glyph-name="E" unicode="E" horiz-adv-x="1650" 
d="M481 240h1065v-240h-1329v1378h1319v-237h-1055v-332h846v-209h-846v-360z" />
    <glyph glyph-name="F" unicode="F" horiz-adv-x="1550" 
d="M1479 1135h-998v-371h787v-219h-787v-545h-264v1378h1262v-243z" />
    <glyph glyph-name="G" unicode="G" horiz-adv-x="1806" 
d="M739 745h938v-569q-247 -211 -751 -211q-799 0 -799 686v78q0 347 204 515.5t589 168.5q243 0 421 -63t326 -211l-168 -209q-198 239 -579 239q-119 0 -213 -24t-165.5 -75t-110 -136.5t-38.5 -202.5v-82q0 -118 39 -203t114.5 -137t178 -76t236.5 -24q310 0 450 108v220
h-672v208z" />
    <glyph glyph-name="H" unicode="H" horiz-adv-x="1892" 
d="M1409 1378h266v-1378h-266v592h-928v-592h-264v1378h264v-549h928v549z" />
    <glyph glyph-name="I" unicode="I" horiz-adv-x="698" 
d="M217 0v1378h264v-1378h-264z" />
    <glyph glyph-name="J" unicode="J" horiz-adv-x="1396" 
d="M-20 205l153 203q78 -105 178.5 -152t261.5 -47q196 0 302 110.5t106 362.5v696h266v-694q0 -375 -167 -547t-507 -172q-190 0 -332.5 53t-260.5 187z" />
    <glyph glyph-name="K" unicode="K" horiz-adv-x="1730" 
d="M1339 0l-495 678l-363 -307v-371h-264v1378h264v-700l852 698h334l-620 -526l622 -850h-330z" />
    <glyph glyph-name="L" unicode="L" horiz-adv-x="1464" 
d="M481 244h912v-244h-1176v1378h264v-1134z" />
    <glyph glyph-name="M" unicode="M" horiz-adv-x="2256" 
d="M1759 1378h281v-1378h-260v940l-557 -850h-199l-547 846v-936h-260v1378h281l626 -964z" />
    <glyph glyph-name="N" unicode="N" horiz-adv-x="1835" 
d="M1358 1378h260v-1378h-264l-877 1006v-1006h-260v1378h264l877 -1003v1003z" />
    <glyph glyph-name="O" unicode="O" horiz-adv-x="1902" 
d="M946 -35q-396 0 -607.5 169t-211.5 517v78q0 347 211.5 515.5t607.5 168.5q400 0 615 -168.5t215 -515.5v-78q0 -348 -215 -517t-615 -169zM946 209q127 0 227 24.5t177 75.5t118 137t41 203v82q0 117 -41 202.5t-118 136.5t-177 75t-227 24q-124 0 -222.5 -24t-174 -75
t-116 -136.5t-40.5 -202.5v-82q0 -117 40.5 -203t116 -137t174 -75.5t222.5 -24.5z" />
    <glyph glyph-name="P" unicode="P" horiz-adv-x="1640" 
d="M1032 1378q262 0 391 -102t129 -342q0 -227 -134.5 -350t-385.5 -123h-557v-461h-258v1378h815zM1016 692q127 0 199.5 60.5t72.5 181.5q0 116 -69 161.5t-203 45.5h-541v-449h541z" />
    <glyph glyph-name="Q" unicode="Q" horiz-adv-x="1902" 
d="M1776 651q0 -456 -373 -608l274 -141l-112 -185l-461 254q-76 -6 -158 -6q-396 0 -607.5 169t-211.5 517v78q0 347 211.5 515.5t607.5 168.5q400 0 615 -168.5t215 -515.5v-78zM1509 649v82q0 117 -41 202.5t-118 136.5t-177 75t-227 24q-124 0 -222.5 -24t-174 -75
t-116 -136.5t-40.5 -202.5v-82q0 -117 40.5 -203t116 -137t174 -75.5t222.5 -24.5q127 0 227 24.5t177 75.5t118 137t41 203z" />
    <glyph glyph-name="R" unicode="R" horiz-adv-x="1693" 
d="M1327 0l-346 461h-506v-461h-258v1378h854q262 0 391 -102t129 -342q0 -178 -83 -293t-242 -158l372 -483h-311zM475 1141v-449h576q129 0 201.5 60.5t72.5 181.5q0 116 -69.5 161.5t-204.5 45.5h-576z" />
    <glyph glyph-name="S" unicode="S" horiz-adv-x="1757" 
d="M928 -35q-295 0 -486.5 56t-339.5 190l123 217q122 -111 284 -168t406 -57q222 0 344.5 51.5t122.5 144.5q0 77 -62 113t-216 51l-442 37q-517 42 -517 395q0 418 719 418q220 0 406.5 -46t361.5 -165l-102 -221q-139 102 -305 149.5t-381 47.5q-158 0 -254 -20.5
t-137 -58.5t-41 -98q0 -76 70 -114t239 -53l356 -33q294 -21 432 -106t138 -275q0 -119 -53.5 -208t-152 -142t-226.5 -79t-287 -26z" />
    <glyph glyph-name="T" unicode="T" horiz-adv-x="1550" 
d="M1493 1378v-237h-584v-1141h-266v1141h-586v237h1436z" />
    <glyph glyph-name="U" unicode="U" horiz-adv-x="1765" 
d="M889 -35q-725 0 -725 713v700h266v-702q0 -127 32.5 -218.5t94 -145t143.5 -78.5t189 -25q100 0 179 25t140 78.5t94 145.5t33 218v702h267v-700q0 -713 -713 -713z" />
    <glyph glyph-name="V" unicode="V" horiz-adv-x="1738" 
d="M1405 1378h299l-692 -1384h-281l-696 1384h299l536 -1110z" />
    <glyph glyph-name="W" unicode="W" horiz-adv-x="2531" 
d="M2148 1378h301l-518 -1384h-278l-393 1067l-392 -1067h-274l-514 1384h301l352 -1059l367 1059h321l369 -1063z" />
    <glyph glyph-name="X" unicode="X" horiz-adv-x="1730" 
d="M1696 0h-334l-516 547l-496 -547h-315l653 692l-649 686h332l508 -553l499 553h314l-654 -700z" />
    <glyph glyph-name="Y" unicode="Y" horiz-adv-x="1691" 
d="M1661 1378l-680 -872v-506h-264v510l-686 868h311l506 -653l500 653h313z" />
    <glyph glyph-name="Z" unicode="Z" horiz-adv-x="1583" 
d="M537 238h976v-238h-1388v203l954 938h-999v237h1401v-211z" />
    <glyph glyph-name="bracketleft" unicode="[" horiz-adv-x="1097" 
d="M1079 1391h-618v-1500h618v-217h-882v1934h882v-217z" />
    <glyph glyph-name="backslash" unicode="\" horiz-adv-x="866" 
d="M559 -301l-520 1911h268l520 -1911h-268z" />
    <glyph glyph-name="bracketright" unicode="]" horiz-adv-x="1097" 
d="M18 1608h883v-1934h-883v217h619v1500h-619v217z" />
    <glyph glyph-name="asciicircum" unicode="^" horiz-adv-x="1228" 
 />
    <glyph glyph-name="underscore" unicode="_" horiz-adv-x="1349" 
d="M1264 -250h-1178v211h1178v-211z" />
    <glyph glyph-name="a" unicode="a" horiz-adv-x="1415" 
d="M696 989q99 0 177 -10.5t151 -39t121.5 -74.5t77 -121t28.5 -175v-569h-237v139q-137 -174 -504 -174q-387 0 -387 301q0 153 95.5 227t297.5 74h471q-14 113 -99.5 157t-240.5 44q-134 0 -225.5 -28.5t-179.5 -96.5l-99 193q195 153 553 153zM569 164q353 0 420 164v49
h-469q-133 0 -133 -98q0 -115 182 -115z" />
    <glyph glyph-name="b" unicode="b" horiz-adv-x="1640" 
d="M942 989q96 0 178 -14t156.5 -48.5t126.5 -87.5t82.5 -136t30.5 -189v-72q0 -107 -30.5 -190t-82.5 -136.5t-126.5 -88t-156.5 -48.5t-178 -14q-381 0 -514 168v-133h-229v1530h262v-692q140 151 481 151zM1253 455v49q0 62 -22 109.5t-57.5 76.5t-85.5 47t-99.5 24.5
t-105.5 6.5q-372 0 -422 -199v-178q13 -60 50.5 -101.5t96.5 -63.5t125 -31t150 -9q72 0 132.5 12t116.5 40.5t88.5 83.5t32.5 133z" />
    <glyph glyph-name="c" unicode="c" horiz-adv-x="1449" 
d="M1300 150q-97 -103 -238 -144t-337 -41q-98 0 -183 14t-163 48.5t-133 87.5t-88 136.5t-33 190.5v72q0 107 33 189.5t89 135.5t136.5 87.5t170 48.5t196.5 14q179 0 311.5 -37.5t241.5 -134.5l-154 -172q-125 123 -393 123q-369 0 -369 -264v-49q0 -269 375 -269
q268 0 403 138z" />
    <glyph glyph-name="d" unicode="d" horiz-adv-x="1646" 
d="M1188 1530h262v-1530h-221l-8 172q-141 -207 -514 -207q-105 0 -190.5 14t-160 48.5t-124.5 88t-78.5 136t-28.5 190.5v72q0 106 31.5 189t85 136t129.5 87.5t159 48.5t179 14q333 0 479 -151v692zM756 186q67 0 129 8.5t123.5 27t108.5 54t71 84.5v242q-20 48 -66.5 82
t-108.5 51.5t-124.5 25t-132.5 7.5q-56 0 -105.5 -6.5t-99 -24.5t-85 -47t-57.5 -76.5t-22 -109.5v-49q0 -63 22 -111t57.5 -77.5t85 -48t99 -25.5t105.5 -7z" />
    <glyph glyph-name="e" unicode="e" horiz-adv-x="1396" 
d="M1305 526v-155h-910q42 -185 324 -185q156 0 250 24t155 85l168 -145q-95 -98 -235 -141.5t-338 -43.5q-97 0 -180.5 13.5t-161.5 47t-132.5 85t-87 133t-32.5 186.5v96q0 104 33 185t88 132.5t133 85t161.5 47t180.5 13.5q65 0 123.5 -6t118.5 -21t109.5 -38.5
t93.5 -60.5t74 -84t47.5 -111.5t17.5 -141.5zM721 768q-329 0 -334 -233h655q-5 233 -321 233z" />
    <glyph glyph-name="f" unicode="f" horiz-adv-x="1148" 
d="M807 1346q-47 0 -84.5 -7t-74.5 -27.5t-62 -54t-40.5 -90.5t-15.5 -133v-78h521v-211h-521v-745h-264v745h-153v211h153v99q0 90 13.5 162.5t38 125t62 92t80.5 64t99.5 39.5t113 21t126.5 6q286 0 463 -105l-88 -203q-172 89 -367 89z" />
    <glyph glyph-name="g" unicode="g" horiz-adv-x="1454" 
d="M1053 956h247v-880q0 -105 -21 -186t-62.5 -135.5t-95 -91t-128.5 -56t-151 -27.5t-174 -8q-185 0 -320 41.5t-201 118.5l91 186q67 -65 175.5 -103t223.5 -38q54 0 95 3.5t90.5 13t84.5 30t66 52t47 82t16 116.5v55q-140 -129 -426 -129q-86 0 -157.5 12t-139.5 43.5
t-114.5 82.5t-74.5 133t-28 190v69q0 105 28.5 186t76 131.5t114.5 83t138.5 45.5t154.5 13q163 0 279.5 -42.5t165.5 -131.5v141zM694 211q61 0 115 9t101.5 28.5t80.5 53.5t45 81v225q-50 162 -346 162q-53 0 -98.5 -7t-89.5 -25t-75 -46t-50 -73t-19 -103v-51
q0 -58 19 -102.5t50 -73t75.5 -46.5t91 -25t100.5 -7z" />
    <glyph glyph-name="h" unicode="h" horiz-adv-x="1542" 
d="M907 989q72 0 133.5 -10.5t122.5 -39.5t103.5 -74.5t69 -121.5t26.5 -176v-567h-262v502q0 256 -283 256q-114 0 -206.5 -37t-149.5 -94v-627h-262v1530h241v-696q75 72 196.5 113.5t270.5 41.5z" />
    <glyph glyph-name="i" unicode="i" horiz-adv-x="675" 
d="M338 1157q-78 0 -122 38t-44 105q0 68 43.5 105t122.5 37t122.5 -37t43.5 -105q0 -67 -44 -105t-122 -38zM207 0v956h262v-956h-262z" />
    <glyph glyph-name="j" unicode="j" horiz-adv-x="755" 
d="M381 1157q-78 0 -122 38t-44 105q0 68 43.5 105t122.5 37t122.5 -37t43.5 -105q0 -67 -44 -105t-122 -38zM-49 -440l-21 219q77 0 133.5 13.5t102 47t69 96t23.5 154.5v866h264v-864q0 -125 -28.5 -218.5t-77.5 -153t-123 -96t-156 -50.5t-186 -14z" />
    <glyph glyph-name="k" unicode="k" horiz-adv-x="1400" 
d="M1026 0l-309 461l-266 -217v-244h-263v1518h263v-979l528 417h346l-410 -333l433 -623h-322z" />
    <glyph glyph-name="l" unicode="l" horiz-adv-x="657" 
d="M199 0v1530h262v-1530h-262z" />
    <glyph glyph-name="m" unicode="m" horiz-adv-x="2433" 
d="M1798 989q455 0 455 -432v-557h-262v492q0 65 -16.5 114t-42.5 77.5t-64.5 45.5t-76 23t-83.5 6q-109 0 -200.5 -35t-149.5 -90q4 -50 4 -76v-557h-262v492q0 65 -16.5 114t-43 77.5t-65 45.5t-76 23t-82.5 6q-113 0 -202.5 -37t-145.5 -94v-627h-262v956h242v-122
q74 73 192 114t266 41q296 0 400 -184q73 84 200.5 134t290.5 50z" />
    <glyph glyph-name="n" unicode="n" horiz-adv-x="1550" 
d="M915 989q457 0 457 -422v-567h-262v502q0 77 -24 130t-67.5 79t-89.5 36.5t-104 10.5q-113 0 -206 -37t-150 -94v-627h-262v956h242v-122q76 72 196 113.5t270 41.5z" />
    <glyph glyph-name="o" unicode="o" horiz-adv-x="1511" 
d="M756 -35q-104 0 -193.5 14t-171.5 48.5t-140 87.5t-92 136.5t-34 190.5v72q0 106 34 189t92 136t140 87.5t171.5 48.5t193.5 14t193 -14t171 -48.5t139.5 -87.5t92 -136t34.5 -189v-72q0 -107 -34.5 -190.5t-92 -136.5t-139.5 -87.5t-171 -48.5t-193 -14zM756 186
q71 0 131.5 12t116.5 40.5t88 83.5t32 133v49q0 62 -22 109.5t-57 76.5t-84.5 47t-99 24.5t-105.5 6.5t-105.5 -6.5t-99 -24.5t-85 -47t-57.5 -76.5t-22 -109.5v-49q0 -63 22 -111t57.5 -77.5t85 -48t99 -25.5t105.5 -7z" />
    <glyph glyph-name="p" unicode="p" horiz-adv-x="1632" 
d="M934 989q96 0 178 -14t156 -48.5t126 -87.5t82.5 -136t30.5 -189v-72q0 -107 -30.5 -190t-83 -136.5t-128 -88t-159.5 -48.5t-184 -14q-332 0 -471 133v-491h-263v1349h232v-157q134 190 514 190zM1245 455v49q0 62 -22.5 109.5t-58 76.5t-85.5 47t-100 24.5t-107 6.5
q-378 0 -421 -209v-158q11 -63 47.5 -106.5t95.5 -66.5t125.5 -32.5t152.5 -9.5q72 0 133.5 12t118 40.5t89 83.5t32.5 133z" />
    <glyph glyph-name="q" unicode="q" horiz-adv-x="1638" 
d="M1229 956h221v-1349h-262v524q-150 -166 -481 -166q-105 0 -190.5 14t-160 48.5t-124.5 88t-78.5 136t-28.5 190.5v72q0 106 31.5 189t85 136t129.5 87.5t159 48.5t179 14q374 0 512 -190zM756 186q67 0 129 8.5t123.5 27t108.5 54t71 84.5v242q-20 48 -66.5 82
t-108.5 51.5t-124.5 25t-132.5 7.5q-56 0 -105.5 -6.5t-99 -24.5t-85 -47t-57.5 -76.5t-22 -109.5v-49q0 -63 22 -111t57.5 -77.5t85 -48t99 -25.5t105.5 -7z" />
    <glyph glyph-name="r" unicode="r" horiz-adv-x="1114" 
d="M805 989q182 0 305 -104l-129 -189q-106 76 -227 76q-97 0 -172 -47.5t-113 -134.5v-590h-262v956h242v-149q56 92 150.5 137t205.5 45z" />
    <glyph glyph-name="s" unicode="s" horiz-adv-x="1337" 
d="M643 -35q-369 0 -551 137l55 191q72 -66 207.5 -101.5t296.5 -35.5q326 0 326 133q0 49 -37.5 73t-114.5 27l-331 12q-204 7 -297 79.5t-93 191.5q0 164 146.5 240.5t406.5 76.5q180 0 314.5 -28.5t238.5 -100.5l-98 -172q-136 109 -446 109q-135 0 -222.5 -28.5
t-87.5 -88.5q0 -52 45 -74.5t129 -27.5l342 -17q180 -8 267.5 -68t87.5 -196q0 -332 -584 -332z" />
    <glyph glyph-name="t" unicode="t" horiz-adv-x="1312" 
d="M1174 272l88 -200q-78 -51 -200 -79t-263 -28q-69 0 -126 6t-113.5 21t-99.5 40t-80.5 64.5t-62 92t-38 125t-13.5 161.5v270h-153v211h153v252h264v-252h656v-211h-656v-249q0 -75 15.5 -132t40.5 -90.5t62 -54t74.5 -28t84.5 -7.5q197 0 367 88z" />
    <glyph glyph-name="u" unicode="u" horiz-adv-x="1548" 
d="M1087 954h263v-956h-242v123q-76 -73 -195 -114.5t-266 -41.5q-454 0 -454 422v567h262v-501q0 -62 16.5 -109t43 -74.5t64.5 -44t75.5 -22.5t82.5 -6q112 0 202.5 37t147.5 94v626z" />
    <glyph glyph-name="v" unicode="v" horiz-adv-x="1404" 
d="M1053 956h323l-532 -956h-291l-524 956h323l346 -720z" />
    <glyph glyph-name="w" unicode="w" horiz-adv-x="2080" 
d="M1729 956h323l-426 -956h-319l-271 692l-284 -692h-303l-420 956h323l246 -696l274 696h336l271 -696z" />
    <glyph glyph-name="x" unicode="x" horiz-adv-x="1343" 
d="M1300 -2h-323l-305 352l-305 -350h-324l438 485l-415 471h323l283 -346l289 346h323l-422 -473z" />
    <glyph glyph-name="y" unicode="y" horiz-adv-x="1439" 
d="M1087 956h324l-756 -1349h-278l198 360l-546 989h323l359 -729z" />
    <glyph glyph-name="z" unicode="z" horiz-adv-x="1249" 
d="M518 211h668v-211h-1073v203l649 542h-658v211h1061v-208z" />
    <glyph glyph-name="braceleft" unicode="{" horiz-adv-x="1024" 
d="M547 -141q105 0 218 15.5t165 35.5l43 -193q-177 -67 -441 -67q-107 0 -187 18.5t-123 45.5t-69 64.5t-33 67.5t-7 64q0 62 22 118t57 97t77.5 77.5t85.5 66t78 56t57 54.5t22 55q0 25 -14.5 41.5t-56.5 30t-125.5 19t-213.5 3.5v197q130 -2 213.5 3t125.5 18.5t56.5 30
t14.5 42.5q0 27 -22 55t-57 54.5t-77.5 56t-85.5 66t-78 77.5t-57 97t-22 118q0 34 7 64t33 68t69 65t123 45.5t187 18.5q246 0 441 -68l-43 -195q-53 21 -166.5 37.5t-216.5 16.5q-191 0 -191 -90q0 -27 22.5 -56t59 -57t80 -58.5t87 -65t80 -71t59 -82t22.5 -92.5
q0 -152 -223 -196q223 -44 223 -199q0 -47 -22.5 -92.5t-59 -81.5t-80 -70t-87 -64.5t-80 -58t-59 -56.5t-22.5 -56q0 -90 191 -90z" />
    <glyph glyph-name="bar" unicode="|" horiz-adv-x="698" 
d="M217 -260v1896h264v-1896h-264z" />
    <glyph glyph-name="braceright" unicode="}" horiz-adv-x="1024" 
d="M932 528q-130 2 -213.5 -3.5t-125.5 -19t-56.5 -30t-14.5 -41.5q0 -27 22 -55t57.5 -54.5t78 -56t85 -66t78 -77.5t57.5 -97t22 -118q0 -34 -7 -64t-33 -67.5t-69.5 -64.5t-123.5 -45.5t-187 -18.5q-264 0 -441 67l43 193q52 -20 165 -35.5t218 -15.5q191 0 191 90
q0 27 -22.5 56t-59 56.5t-80 58t-87 64.5t-80 70t-59 81.5t-22.5 92.5q0 155 224 199q-106 21 -165 70t-59 126q0 47 22.5 92.5t59 82t80 71t87 65t80 58.5t59 57t22.5 56q0 90 -191 90q-103 0 -216.5 -16.5t-166.5 -37.5l-43 195q195 68 441 68q107 0 187 -18.5
t123.5 -45.5t69.5 -65t33 -68t7 -64q0 -62 -22 -118t-57.5 -97t-78 -77.5t-85 -66t-78 -56t-57.5 -54.5t-22 -55q0 -26 14.5 -42.5t56.5 -30t125.5 -18.5t213.5 -3v-197z" />
    <glyph glyph-name="exclamdown" unicode="&#xa1;" horiz-adv-x="792" 
d="M393 991q185 0 185 -143q0 -137 -185 -137q-93 0 -135.5 34t-42.5 103q0 71 42.5 107t135.5 36zM258 594h264v-987h-264v987z" />
    <glyph glyph-name="cent" unicode="&#xa2;" horiz-adv-x="1462" 
d="M1360 360q-132 -132 -432 -163v-197h-266v190q-90 6 -166.5 24t-146 54.5t-118.5 89.5t-77.5 131.5t-28.5 176.5v71q0 118 41 207t116.5 143t168.5 83t211 38v170h266v-172q273 -27 430 -151l-133 -191q-135 127 -426 127q-412 0 -412 -266v-49q0 -266 418 -266
q297 0 434 137z" />
    <glyph glyph-name="sterling" unicode="&#xa3;" horiz-adv-x="1673" 
d="M707 428q0 -119 -105 -190h997v-238h-1509v227q69 0 127 9.5t106.5 30t75.5 57t27 86.5q0 74 -49 157h-318v176h211q-55 108 -55 226q0 199 169 321.5t482 122.5q236 0 410 -54.5t326 -180.5l-162 -203q-82 93 -217.5 144.5t-315.5 51.5q-199 0 -297 -67.5t-98 -181.5
q0 -87 57 -179h727v-176h-622q33 -68 33 -139z" />
    <glyph glyph-name="currency" unicode="&#xa4;" horiz-adv-x="1228" 
 />
    <glyph glyph-name="yen" unicode="&#xa5;" horiz-adv-x="1724" 
d="M1729 1378l-596 -612h333v-186h-469v-187h469v-186h-469v-207h-264v207h-469v186h469v187h-469v186h334l-604 612h303l567 -579l563 579h302z" />
    <glyph glyph-name="brokenbar" unicode="&#xa6;" horiz-adv-x="698" 
d="M217 772v864h264v-864h-264zM481 608v-868h-264v868h264z" />
    <glyph glyph-name="section" unicode="&#xa7;" horiz-adv-x="1755" 
d="M1501 279q109 -78 109 -230q0 -208 -173 -309.5t-487 -101.5q-276 0 -472 44.5t-374 165.5l103 222q139 -102 306.5 -149.5t385.5 -47.5q238 0 341 43.5t103 126.5q0 69 -67 100.5t-236 40.5l-411 23q-95 5 -166 16t-135 34t-104 58t-63.5 89.5t-23.5 127.5
q0 72 40.5 131t101.5 97q-138 82 -138 264q0 389 703 389q238 0 425.5 -43.5t368.5 -157.5l-100 -223q-145 99 -310.5 144t-383.5 45q-237 0 -336.5 -39.5t-99.5 -122.5q0 -70 70.5 -106t242.5 -46l434 -22q95 -4 167 -15t135.5 -34t104 -58.5t64 -90t23.5 -126.5
q0 -76 -42.5 -137t-105.5 -102zM676 406l491 -33q70 -5 144 -19q82 58 82 135q0 76 -64 111.5t-219 44.5l-516 33q-60 3 -113 12q-90 -51 -90 -129q0 -75 64 -109.5t221 -45.5z" />
    <glyph glyph-name="copyright" unicode="&#xa9;" horiz-adv-x="1972" 
d="M981 -35q-408 0 -628 169t-220 517v78q0 346 220 515t628 169q273 0 462 -71.5t292.5 -225.5t103.5 -387v-78q0 -234 -103.5 -388.5t-292.5 -226t-462 -71.5zM981 43q170 0 306 31t244 98.5t167 184.5t59 278v110q0 129 -39.5 230.5t-108 168.5t-167.5 110.5t-212.5 62
t-248.5 18.5q-133 0 -245 -18.5t-210 -62t-165.5 -110.5t-106.5 -168.5t-39 -230.5v-110q0 -129 39 -230.5t106.5 -169t165.5 -111t210 -62.5t245 -19zM1497 430q-187 -143 -516 -143q-86 0 -160 11.5t-143.5 40t-118.5 72.5t-78.5 113t-29.5 158v53q0 110 43.5 188.5
t122 122t173 63t211.5 19.5q160 0 276 -30.5t216 -106.5l-117 -160q-118 105 -358 105q-342 0 -342 -207v-41q0 -209 348 -209q248 -3 373 113z" />
    <glyph glyph-name="guillemotleft" unicode="&#xab;" horiz-adv-x="1662" 
d="M821 739l-571 -258l571 -245l-53 -220l-723 371v201l723 373zM1583 739l-571 -258l571 -245l-53 -220l-723 371v201l723 373z" />
    <glyph glyph-name="registered" unicode="&#xae;" horiz-adv-x="1773" 
d="M877 1436q360 0 561.5 -136.5t201.5 -408.5v-55q0 -184 -95 -307.5t-263 -180.5t-405 -57q-351 0 -547.5 136t-196.5 409v55q0 272 197 408.5t547 136.5zM1559 819v88q0 123 -53.5 213t-149.5 140.5t-214.5 74t-264.5 23.5q-112 0 -207.5 -14t-180.5 -47t-145 -84
t-94.5 -129t-34.5 -177v-88q0 -123 52 -212.5t145 -140.5t208.5 -75t256.5 -24q145 0 264 24t215 75t149.5 140.5t53.5 212.5zM1300 979q0 -92 -46.5 -150.5t-135.5 -78.5l207 -240h-182l-195 229h-268v-229h-152v707h492q141 0 210.5 -51.5t69.5 -170.5v-16zM680 1075v-198
h344q55 0 88 25.5t33 74.5v10q0 51 -30 69.5t-91 18.5h-344z" />
    <glyph glyph-name="degree" unicode="&#xb0;" horiz-adv-x="1171" 
d="M586 662q-80 0 -148 10.5t-131 36t-107 64.5t-70 100t-26 139v51q0 78 26 139t70 100t107 64.5t131 36t148 10.5q100 0 182.5 -17.5t151.5 -56.5t108 -109t39 -167v-51q0 -97 -39 -167t-108 -109t-151.5 -56.5t-182.5 -17.5zM586 840q52 -1 97 7t85.5 27.5t64 57
t23.5 90.5v33q0 180 -270 180q-42 0 -78.5 -4.5t-73 -16.5t-62.5 -31.5t-42.5 -52.5t-16.5 -75v-33q0 -53 23.5 -90t65 -56.5t86.5 -27.5t98 -8z" />
    <glyph glyph-name="plusminus" unicode="&#xb1;" horiz-adv-x="1228" 
 />
    <glyph glyph-name="paragraph" unicode="&#xb6;" horiz-adv-x="1634" 
d="M637 1378h782v-1622h-258v836h-524q-477 0 -477 393q0 109 31 185.5t93 122t148 65.5t205 20z" />
    <glyph glyph-name="periodcentered" unicode="&#xb7;" horiz-adv-x="522" 
d="M258 526q-85 0 -131.5 43.5t-46.5 122.5q0 75 46.5 115.5t131.5 40.5q87 0 135.5 -40.5t48.5 -115.5q0 -79 -48.5 -122.5t-135.5 -43.5z" />
    <glyph glyph-name="guillemotright" unicode="&#xbb;" horiz-adv-x="1662" 
d="M856 588v-201l-723 -371l-53 220l571 245l-571 258l53 222zM895 961l723 -373v-201l-723 -371l-53 220l571 245l-571 258z" />
    <glyph glyph-name="questiondown" unicode="&#xbf;" horiz-adv-x="1597" 
d="M911 987q93 0 136 -36.5t43 -108.5q0 -68 -43 -101.5t-136 -33.5q-184 0 -184 135q0 145 184 145zM1036 580q10 -89 -5 -154.5t-43.5 -104.5t-83.5 -65t-106 -37.5t-130 -21.5q-151 -21 -219 -64.5t-68 -130.5q0 -97 89.5 -144.5t283.5 -47.5q193 0 349.5 63.5
t254.5 194.5l153 -174q-239 -322 -763 -322q-150 0 -263.5 21.5t-199 69t-130 128.5t-44.5 195q0 176 107.5 280.5t316.5 124.5q57 8 93.5 15.5t69.5 21.5t50.5 33t26 48.5t5.5 70.5h256z" />
    <glyph glyph-name="Agrave" unicode="&#xc0;" horiz-adv-x="1738" 
d="M1038 1585l-88 -106l-450 311l131 182zM1384 0l-106 238h-819l-105 -238h-293l644 1389h327l645 -1389h-293zM553 451h631l-316 708z" />
    <glyph glyph-name="Aacute" unicode="&#xc1;" horiz-adv-x="1738" 
d="M1272 1790l-451 -311l-88 106l408 387zM1384 0l-106 238h-819l-105 -238h-293l644 1389h327l645 -1389h-293zM553 451h631l-316 708z" />
    <glyph glyph-name="Acircumflex" unicode="&#xc2;" horiz-adv-x="1738" 
d="M870 1747l-358 -268l-88 106l375 387h145l375 -387l-88 -106zM1384 0l-106 238h-819l-105 -238h-293l644 1389h327l645 -1389h-293zM553 451h631l-316 708z" />
    <glyph glyph-name="Atilde" unicode="&#xc3;" horiz-adv-x="1738" 
d="M418 1491q-13 208 57.5 314t192.5 106q27 0 49.5 -5t45 -17.5t35.5 -22t39.5 -31t39.5 -31.5q10 -9 33.5 -32t34 -32t28.5 -18.5t35 -9.5q43 0 63.5 56t11.5 147h211q10 -204 -65 -314t-193 -110q-25 0 -50 7t-38.5 12t-39.5 25t-31 24.5l-35 31.5q-8 7 -28.5 27t-28 26
t-22.5 17t-27.5 14.5t-26.5 3.5q-46 0 -67 -49t-15 -139h-209zM1384 0l-106 238h-819l-105 -238h-293l644 1389h327l645 -1389h-293zM553 451h631l-316 708z" />
    <glyph glyph-name="Adieresis" unicode="&#xc4;" horiz-adv-x="1738" 
d="M598 1556q-78 0 -120 42t-42 120q0 73 42 112.5t120 39.5q77 0 121.5 -39.5t44.5 -112.5q0 -77 -44.5 -119.5t-121.5 -42.5zM1141 1556q-77 0 -119.5 42t-42.5 120q0 73 42.5 112.5t119.5 39.5t121.5 -39.5t44.5 -112.5q0 -77 -44.5 -119.5t-121.5 -42.5zM1384 0
l-106 238h-819l-105 -238h-293l644 1389h327l645 -1389h-293zM553 451h631l-316 708z" />
    <glyph glyph-name="Aring" unicode="&#xc5;" horiz-adv-x="1738" 
d="M870 1477q-432 0 -432 262v14q0 123 104 192.5t328 69.5q426 0 426 -262v-14q0 -262 -426 -262zM631 1751v-10q0 -105 239 -105q236 0 236 105v10q0 102 -236 102q-239 0 -239 -102zM1384 0l-106 238h-819l-105 -238h-293l644 1389h327l645 -1389h-293zM553 451h631
l-316 708z" />
    <glyph glyph-name="AE" unicode="&#xc6;" horiz-adv-x="2398" 
d="M1403 240h891v-240h-1153l-13 371h-645l-213 -371h-295l818 1378h1493v-237h-920l14 -332h695v-209h-686zM606 582h514l-18 575h-164z" />
    <glyph glyph-name="Ccedilla" unicode="&#xc7;" horiz-adv-x="1765" 
d="M920 -35h-5l-10 -51q152 6 225.5 -34t73.5 -132q0 -172 -309 -172q-81 0 -139 9.5t-78 19.5l27 119q67 -25 161 -25q158 0 158 57q0 32 -58.5 44.5t-197.5 6.5l27 162q-325 27 -496.5 195t-171.5 487v78q0 347 204 515.5t589 168.5q124 0 229 -16t204.5 -53.5t181.5 -105
t140 -163.5l-200 -168q-94 135 -227.5 198.5t-327.5 63.5q-119 0 -213 -24t-165.5 -75t-110 -136.5t-38.5 -202.5v-82q0 -117 38.5 -203t110 -137t165.5 -75.5t213 -24.5q206 0 340.5 66t228.5 219l207 -158q-117 -190 -307.5 -280.5t-468.5 -90.5z" />
    <glyph glyph-name="Egrave" unicode="&#xc8;" horiz-adv-x="1650" 
d="M1044 1585l-88 -106l-450 311l131 182zM481 240h1065v-240h-1329v1378h1319v-237h-1055v-332h846v-209h-846v-360z" />
    <glyph glyph-name="Eacute" unicode="&#xc9;" horiz-adv-x="1650" 
d="M1278 1790l-451 -311l-88 106l408 387zM481 240h1065v-240h-1329v1378h1319v-237h-1055v-332h846v-209h-846v-360z" />
    <glyph glyph-name="Ecircumflex" unicode="&#xca;" horiz-adv-x="1650" 
d="M877 1747l-359 -268l-88 106l375 387h145l375 -387l-88 -106zM481 240h1065v-240h-1329v1378h1319v-237h-1055v-332h846v-209h-846v-360z" />
    <glyph glyph-name="Edieresis" unicode="&#xcb;" horiz-adv-x="1650" 
d="M604 1556q-78 0 -120 42t-42 120q0 73 42 112.5t120 39.5q77 0 121.5 -39.5t44.5 -112.5q0 -77 -44.5 -119.5t-121.5 -42.5zM1147 1556q-77 0 -119.5 42t-42.5 120q0 73 42.5 112.5t119.5 39.5t121.5 -39.5t44.5 -112.5q0 -77 -44.5 -119.5t-121.5 -42.5zM481 240h1065
v-240h-1329v1378h1319v-237h-1055v-332h846v-209h-846v-360z" />
    <glyph glyph-name="Igrave" unicode="&#xcc;" horiz-adv-x="698" 
d="M-20 1790l131 182l407 -387l-88 -106zM217 0v1378h264v-1378h-264z" />
    <glyph glyph-name="Iacute" unicode="&#xcd;" horiz-adv-x="698" 
d="M752 1790l-451 -311l-88 106l408 387zM217 0v1378h264v-1378h-264z" />
    <glyph glyph-name="Icircumflex" unicode="&#xce;" horiz-adv-x="698" 
d="M424 1972l375 -387l-88 -106l-361 268l-358 -268l-88 106l375 387h145zM217 0v1378h264v-1378h-264z" />
    <glyph glyph-name="Idieresis" unicode="&#xcf;" horiz-adv-x="698" 
d="M78 1556q-78 0 -120 42t-42 120q0 73 42 112.5t120 39.5q77 0 121.5 -39.5t44.5 -112.5q0 -77 -44.5 -119.5t-121.5 -42.5zM621 1556q-77 0 -119.5 42t-42.5 120q0 73 42.5 112.5t119.5 39.5t121 -39.5t44 -112.5q0 -77 -44 -119.5t-121 -42.5zM217 0v1378h264v-1378
h-264z" />
    <glyph glyph-name="Eth" unicode="&#xd0;" horiz-adv-x="1878" 
d="M965 1378q375 0 575.5 -160.5t200.5 -492.5v-70q0 -172 -52 -298t-153.5 -204t-243 -115.5t-327.5 -37.5h-748v584h-135v211h135v583h748zM1475 653v74q0 215 -128.5 311.5t-381.5 96.5h-484v-340h588v-211h-588v-340h484q255 0 382.5 94t127.5 315z" />
    <glyph glyph-name="Ntilde" unicode="&#xd1;" horiz-adv-x="1835" 
d="M465 1491q-13 208 58 314t192 106q27 0 49.5 -5t45 -17.5t35.5 -22t39.5 -31t39.5 -31.5q10 -9 33.5 -32t34 -32t28.5 -18.5t35 -9.5q43 0 63.5 56t11.5 147h211q10 -204 -65 -314t-193 -110q-25 0 -50 7t-38.5 12t-39.5 25t-31 24.5l-35 31.5q-8 7 -28.5 27t-28 26
t-22.5 17t-27.5 14.5t-26.5 3.5q-46 0 -67 -49t-15 -139h-209zM1358 1378h260v-1378h-264l-877 1006v-1006h-260v1378h264l877 -1003v1003z" />
    <glyph glyph-name="Ograve" unicode="&#xd2;" horiz-adv-x="1902" 
d="M580 1790l131 182l407 -387l-88 -106zM946 -35q-396 0 -607.5 169t-211.5 517v78q0 347 211.5 515.5t607.5 168.5q400 0 615 -168.5t215 -515.5v-78q0 -348 -215 -517t-615 -169zM946 209q127 0 227 24.5t177 75.5t118 137t41 203v82q0 117 -41 202.5t-118 136.5t-177 75
t-227 24q-124 0 -222.5 -24t-174 -75t-116 -136.5t-40.5 -202.5v-82q0 -117 40.5 -203t116 -137t174 -75.5t222.5 -24.5z" />
    <glyph glyph-name="Oacute" unicode="&#xd3;" horiz-adv-x="1902" 
d="M1352 1790l-451 -311l-88 106l408 387zM946 -35q-396 0 -607.5 169t-211.5 517v78q0 347 211.5 515.5t607.5 168.5q400 0 615 -168.5t215 -515.5v-78q0 -348 -215 -517t-615 -169zM946 209q127 0 227 24.5t177 75.5t118 137t41 203v82q0 117 -41 202.5t-118 136.5
t-177 75t-227 24q-124 0 -222.5 -24t-174 -75t-116 -136.5t-40.5 -202.5v-82q0 -117 40.5 -203t116 -137t174 -75.5t222.5 -24.5z" />
    <glyph glyph-name="Ocircumflex" unicode="&#xd4;" horiz-adv-x="1902" 
d="M950 1747l-358 -268l-88 106l375 387h145l375 -387l-88 -106zM946 1413q400 0 615 -168.5t215 -515.5v-78q0 -348 -215 -517t-615 -169q-396 0 -607.5 169t-211.5 517v78q0 347 211.5 515.5t607.5 168.5zM1509 649v82q0 117 -41 202.5t-118 136.5t-177 75t-227 24
q-124 0 -222.5 -24t-174 -75t-116 -136.5t-40.5 -202.5v-82q0 -117 40.5 -203t116 -137t174 -75.5t222.5 -24.5q127 0 227 24.5t177 75.5t118 137t41 203z" />
    <glyph glyph-name="Otilde" unicode="&#xd5;" horiz-adv-x="1902" 
d="M498 1491q-13 208 57.5 314t192.5 106q27 0 49.5 -5t44.5 -17.5t35.5 -22t39.5 -31t39 -31.5q10 -9 33.5 -32t34 -32t28.5 -18.5t35 -9.5q43 0 64 56t12 147h211q10 -204 -65 -314t-193 -110q-25 0 -50 7t-38.5 12t-39.5 25t-31 24.5l-35 31.5q-8 7 -24.5 23t-23.5 22
t-20 16.5t-21.5 15t-20.5 8t-24 3.5q-45 0 -66 -49t-15 -139h-209zM946 -35q-396 0 -607.5 169t-211.5 517v78q0 347 211.5 515.5t607.5 168.5q400 0 615 -168.5t215 -515.5v-78q0 -348 -215 -517t-615 -169zM946 209q127 0 227 24.5t177 75.5t118 137t41 203v82
q0 117 -41 202.5t-118 136.5t-177 75t-227 24q-124 0 -222.5 -24t-174 -75t-116 -136.5t-40.5 -202.5v-82q0 -117 40.5 -203t116 -137t174 -75.5t222.5 -24.5z" />
    <glyph glyph-name="Odieresis" unicode="&#xd6;" horiz-adv-x="1902" 
d="M678 1556q-78 0 -120 42t-42 120q0 73 42 112.5t120 39.5q77 0 121.5 -39.5t44.5 -112.5q0 -77 -44.5 -119.5t-121.5 -42.5zM1221 1556q-77 0 -119.5 42t-42.5 120q0 73 42.5 112.5t119.5 39.5t121 -39.5t44 -112.5q0 -77 -44 -119.5t-121 -42.5zM946 -35
q-396 0 -607.5 169t-211.5 517v78q0 347 211.5 515.5t607.5 168.5q400 0 615 -168.5t215 -515.5v-78q0 -348 -215 -517t-615 -169zM946 209q127 0 227 24.5t177 75.5t118 137t41 203v82q0 117 -41 202.5t-118 136.5t-177 75t-227 24q-124 0 -222.5 -24t-174 -75t-116 -136.5
t-40.5 -202.5v-82q0 -117 40.5 -203t116 -137t174 -75.5t222.5 -24.5z" />
    <glyph glyph-name="multiply" unicode="&#xd7;" horiz-adv-x="1351" 
d="M1286 289l-141 -144l-467 381l-469 -381l-143 144l450 366l-438 357l141 143l457 -371l457 371l143 -143l-440 -357z" />
    <glyph glyph-name="Oslash" unicode="&#xd8;" horiz-adv-x="1902" 
d="M1651 1155q125 -162 125 -426v-78q0 -348 -215 -517t-615 -169q-288 0 -477 88l-145 -135l-207 160l143 135q-133 169 -133 438v78q0 347 211.5 515.5t607.5 168.5q303 0 498 -94l119 111l209 -162zM393 649q0 -150 68 -250l778 727q-117 43 -293 43q-124 0 -222.5 -24
t-174 -75t-116 -136.5t-40.5 -202.5v-82zM1509 649v82q0 144 -59 236l-774 -721q115 -37 270 -37q127 0 227 24.5t177 75.5t118 137t41 203z" />
    <glyph glyph-name="Ugrave" unicode="&#xd9;" horiz-adv-x="1765" 
d="M514 1790l131 182l408 -387l-88 -106zM889 -35q-725 0 -725 713v700h266v-702q0 -127 32.5 -218.5t94 -145t143.5 -78.5t189 -25q100 0 179 25t140 78.5t94 145.5t33 218v702h267v-700q0 -713 -713 -713z" />
    <glyph glyph-name="Uacute" unicode="&#xda;" horiz-adv-x="1765" 
d="M1286 1790l-450 -311l-88 106l407 387zM889 -35q-725 0 -725 713v700h266v-702q0 -127 32.5 -218.5t94 -145t143.5 -78.5t189 -25q100 0 179 25t140 78.5t94 145.5t33 218v702h267v-700q0 -713 -713 -713z" />
    <glyph glyph-name="Ucircumflex" unicode="&#xdb;" horiz-adv-x="1765" 
d="M885 1747l-359 -268l-88 106l375 387h145l375 -387l-88 -106zM1335 1378h267v-700q0 -713 -713 -713q-725 0 -725 713v700h266v-702q0 -127 32.5 -218.5t94 -145t143.5 -78.5t189 -25q100 0 179 25t140 78.5t94 145.5t33 218v702z" />
    <glyph glyph-name="Udieresis" unicode="&#xdc;" horiz-adv-x="1765" 
d="M612 1556q-78 0 -119.5 42t-41.5 120q0 74 41.5 113t119.5 39q77 0 121.5 -39.5t44.5 -112.5q0 -77 -44.5 -119.5t-121.5 -42.5zM1155 1556q-77 0 -119.5 42t-42.5 120q0 73 42.5 112.5t119.5 39.5t121.5 -39.5t44.5 -112.5q0 -77 -44.5 -119.5t-121.5 -42.5zM889 -35
q-725 0 -725 713v700h266v-702q0 -127 32.5 -218.5t94 -145t143.5 -78.5t189 -25q100 0 179 25t140 78.5t94 145.5t33 218v702h267v-700q0 -713 -713 -713z" />
    <glyph glyph-name="Yacute" unicode="&#xdd;" horiz-adv-x="1691" 
d="M1247 1790l-450 -311l-88 106l407 387zM1661 1378l-680 -872v-506h-264v510l-686 868h311l506 -653l500 653h313z" />
    <glyph glyph-name="Thorn" unicode="&#xde;" horiz-adv-x="1650" 
d="M1030 1204q264 0 393 -102.5t129 -343.5q0 -225 -134.5 -347t-387.5 -122h-555v-289h-258v1378h258v-174h555zM1012 520q130 0 203 60t73 178q0 61 -19 102.5t-56.5 64.5t-85.5 32.5t-115 9.5h-537v-447h537z" />
    <glyph glyph-name="germandbls" unicode="&#xdf;" horiz-adv-x="1593" 
d="M1087 772q443 -21 443 -373q0 -99 -31 -176.5t-81.5 -125t-121 -78.5t-141.5 -42.5t-151 -11.5q-149 0 -238.5 15t-175.5 55l24 231q117 -73 332 -73q322 0 322 229q0 209 -350 209h-293v207h155q63 0 119.5 15t103 45t74 81.5t27.5 118.5q0 248 -283 248
q-60 0 -106.5 -8t-91.5 -32t-74.5 -63t-47.5 -104.5t-18 -153.5v-985h-264v981q0 137 29 239t79.5 167.5t128 105.5t165.5 56t200 16q130 0 227 -22t170 -71t110.5 -133t37.5 -202q0 -145 -75.5 -236t-203.5 -129z" />
    <glyph glyph-name="agrave" unicode="&#xe0;" horiz-adv-x="1415" 
d="M858 1163l-88 -106l-451 311l132 182zM696 989q99 0 177 -10.5t151 -39t121.5 -74.5t77 -121t28.5 -175v-569h-237v139q-137 -174 -504 -174q-387 0 -387 301q0 153 95.5 227t297.5 74h471q-14 113 -99.5 157t-240.5 44q-134 0 -225.5 -28.5t-179.5 -96.5l-99 193
q195 153 553 153zM569 164q353 0 420 164v49h-469q-133 0 -133 -98q0 -115 182 -115z" />
    <glyph glyph-name="aacute" unicode="&#xe1;" horiz-adv-x="1415" 
d="M1092 1368l-451 -311l-88 106l408 387zM696 989q99 0 177 -10.5t151 -39t121.5 -74.5t77 -121t28.5 -175v-569h-237v139q-137 -174 -504 -174q-387 0 -387 301q0 153 95.5 227t297.5 74h471q-14 113 -99.5 157t-240.5 44q-134 0 -225.5 -28.5t-179.5 -96.5l-99 193
q195 153 553 153zM569 164q353 0 420 164v49h-469q-133 0 -133 -98q0 -115 182 -115z" />
    <glyph glyph-name="acircumflex" unicode="&#xe2;" horiz-adv-x="1415" 
d="M690 1325l-358 -268l-88 106l374 387h146l375 -387l-88 -106zM696 989q99 0 177 -10.5t151 -39t121.5 -74.5t77 -121t28.5 -175v-569h-237v139q-137 -174 -504 -174q-387 0 -387 301q0 153 95.5 227t297.5 74h471q-14 113 -99.5 157t-240.5 44q-134 0 -225.5 -28.5
t-179.5 -96.5l-99 193q195 153 553 153zM569 164q353 0 420 164v49h-469q-133 0 -133 -98q0 -115 182 -115z" />
    <glyph glyph-name="atilde" unicode="&#xe3;" horiz-adv-x="1415" 
d="M238 1069q-13 208 57.5 314t191.5 106q27 0 49.5 -5t45 -17.5t35.5 -22t39.5 -31t39.5 -31.5q10 -9 33.5 -32t34 -32t28.5 -18.5t35 -9.5q43 0 64 56t12 147h211q10 -204 -65 -314t-193 -110q-25 0 -50 7t-38.5 12t-39.5 25t-31 24.5l-35 31.5q-8 7 -24.5 23t-23.5 22
t-20 16.5t-21.5 15t-20.5 8t-24 3.5q-46 0 -67 -49t-15 -139h-208zM696 989q99 0 177 -10.5t151 -39t121.5 -74.5t77 -121t28.5 -175v-569h-237v139q-137 -174 -504 -174q-387 0 -387 301q0 153 95.5 227t297.5 74h471q-14 113 -99.5 157t-240.5 44q-134 0 -225.5 -28.5
t-179.5 -96.5l-99 193q195 153 553 153zM569 164q353 0 420 164v49h-469q-133 0 -133 -98q0 -115 182 -115z" />
    <glyph glyph-name="adieresis" unicode="&#xe4;" horiz-adv-x="1415" 
d="M418 1133q-78 0 -120 42t-42 119q0 75 42 113.5t120 38.5t122 -39t44 -113q0 -76 -44.5 -118.5t-121.5 -42.5zM961 1133q-77 0 -119.5 42.5t-42.5 118.5q0 74 42.5 113t119.5 39q78 0 121.5 -39t43.5 -113q0 -76 -44 -118.5t-121 -42.5zM696 989q99 0 177 -10.5t151 -39
t121.5 -74.5t77 -121t28.5 -175v-569h-237v139q-137 -174 -504 -174q-387 0 -387 301q0 153 95.5 227t297.5 74h471q-14 113 -99.5 157t-240.5 44q-134 0 -225.5 -28.5t-179.5 -96.5l-99 193q195 153 553 153zM569 164q353 0 420 164v49h-469q-133 0 -133 -98
q0 -115 182 -115z" />
    <glyph glyph-name="aring" unicode="&#xe5;" horiz-adv-x="1415" 
d="M690 1075q-212 0 -322 71.5t-110 192.5v15q0 120 110 191t322 71q211 0 318.5 -71t107.5 -191v-15q0 -122 -107.5 -193t-318.5 -71zM451 1352v-11q0 -104 239 -104q236 0 236 104v11q0 102 -236 102q-239 0 -239 -102zM696 989q99 0 177 -10.5t151 -39t121.5 -74.5
t77 -121t28.5 -175v-569h-237v139q-137 -174 -504 -174q-387 0 -387 301q0 153 95.5 227t297.5 74h471q-14 113 -99.5 157t-240.5 44q-134 0 -225.5 -28.5t-179.5 -96.5l-99 193q195 153 553 153zM569 164q353 0 420 164v49h-469q-133 0 -133 -98q0 -115 182 -115z" />
    <glyph glyph-name="ae" unicode="&#xe6;" horiz-adv-x="2258" 
d="M1993 295l166 -145q-93 -97 -233 -141t-339 -44q-369 0 -497 213q-75 -118 -220 -165.5t-360 -47.5q-387 0 -387 301q0 149 96 221t297 72h471q-11 117 -97 163t-243 46q-134 0 -225.5 -28.5t-179.5 -96.5l-99 193q195 153 553 153q326 0 443 -149q142 149 448 149
q90 0 167 -12.5t152 -44.5t127.5 -83t84.5 -133.5t32 -189.5v-155h-886q42 -185 323 -185q156 0 250.5 24t155.5 85zM1587 768q-327 0 -332 -233h633q-5 233 -301 233zM387 279q0 -115 207 -115q283 0 395 96v109h-469q-61 0 -97 -19t-36 -71z" />
    <glyph glyph-name="ccedilla" unicode="&#xe7;" horiz-adv-x="1449" 
d="M762 186q268 0 403 138l135 -174q-90 -96 -220 -138t-306 -47l-14 -65q152 6 225.5 -34t73.5 -132q0 -172 -293 -172q-86 0 -150.5 9.5t-83.5 18.5l27 119q65 -24 176 -24q144 0 144 57q0 32 -58.5 44.5t-197.5 6.5l28 174q-112 6 -202.5 34t-165.5 82t-116.5 145.5
t-41.5 213.5v72q0 107 33 189.5t89 135.5t136.5 87.5t170 48.5t196.5 14q179 0 311.5 -37.5t241.5 -134.5l-154 -172q-125 123 -393 123q-369 0 -369 -264v-49q0 -269 375 -269z" />
    <glyph glyph-name="egrave" unicode="&#xe8;" horiz-adv-x="1396" 
d="M881 1163l-88 -106l-451 311l131 182zM1305 526v-155h-910q42 -185 324 -185q156 0 250 24t155 85l168 -145q-95 -98 -235 -141.5t-338 -43.5q-97 0 -180.5 13.5t-161.5 47t-132.5 85t-87 133t-32.5 186.5v96q0 104 33 185t88 132.5t133 85t161.5 47t180.5 13.5
q65 0 123.5 -6t118.5 -21t109.5 -38.5t93.5 -60.5t74 -84t47.5 -111.5t17.5 -141.5zM721 768q-329 0 -334 -233h655q-5 233 -321 233z" />
    <glyph glyph-name="eacute" unicode="&#xe9;" horiz-adv-x="1396" 
d="M1114 1368l-450 -311l-89 106l408 387zM1305 526v-155h-910q42 -185 324 -185q156 0 250 24t155 85l168 -145q-95 -98 -235 -141.5t-338 -43.5q-97 0 -180.5 13.5t-161.5 47t-132.5 85t-87 133t-32.5 186.5v96q0 104 33 185t88 132.5t133 85t161.5 47t180.5 13.5
q65 0 123.5 -6t118.5 -21t109.5 -38.5t93.5 -60.5t74 -84t47.5 -111.5t17.5 -141.5zM721 768q-329 0 -334 -233h655q-5 233 -321 233z" />
    <glyph glyph-name="ecircumflex" unicode="&#xea;" horiz-adv-x="1396" 
d="M713 1325l-359 -268l-88 106l375 387h145l375 -387l-88 -106zM1305 526v-155h-910q42 -185 324 -185q156 0 250 24t155 85l168 -145q-95 -98 -235 -141.5t-338 -43.5q-97 0 -180.5 13.5t-161.5 47t-132.5 85t-87 133t-32.5 186.5v96q0 104 33 185t88 132.5t133 85
t161.5 47t180.5 13.5q65 0 123.5 -6t118.5 -21t109.5 -38.5t93.5 -60.5t74 -84t47.5 -111.5t17.5 -141.5zM721 768q-329 0 -334 -233h655q-5 233 -321 233z" />
    <glyph glyph-name="edieresis" unicode="&#xeb;" horiz-adv-x="1396" 
d="M440 1133q-78 0 -119.5 42t-41.5 119q0 75 41.5 113.5t119.5 38.5t122 -39t44 -113q0 -76 -44.5 -118.5t-121.5 -42.5zM983 1133q-77 0 -119.5 42.5t-42.5 118.5q0 74 42.5 113t119.5 39q78 0 122 -39t44 -113q0 -76 -44.5 -118.5t-121.5 -42.5zM1305 526v-155h-910
q42 -185 324 -185q156 0 250 24t155 85l168 -145q-95 -98 -235 -141.5t-338 -43.5q-97 0 -180.5 13.5t-161.5 47t-132.5 85t-87 133t-32.5 186.5v96q0 104 33 185t88 132.5t133 85t161.5 47t180.5 13.5q65 0 123.5 -6t118.5 -21t109.5 -38.5t93.5 -60.5t74 -84t47.5 -111.5
t17.5 -141.5zM721 768q-329 0 -334 -233h655q-5 233 -321 233z" />
    <glyph glyph-name="igrave" unicode="&#xec;" horiz-adv-x="675" 
d="M-33 1368l131 182l408 -387l-88 -106zM207 0v956h262v-956h-262z" />
    <glyph glyph-name="iacute" unicode="&#xed;" horiz-adv-x="675" 
d="M739 1368l-450 -311l-88 106l407 387zM207 0v956h262v-956h-262z" />
    <glyph glyph-name="icircumflex" unicode="&#xee;" horiz-adv-x="675" 
d="M412 1550l374 -387l-88 -106l-360 268l-358 -268l-89 106l375 387h146zM207 0v956h262v-956h-262z" />
    <glyph glyph-name="idieresis" unicode="&#xef;" horiz-adv-x="675" 
d="M66 1133q-78 0 -120 42t-42 119q0 75 42 113.5t120 38.5t121.5 -39t43.5 -113q0 -76 -44 -118.5t-121 -42.5zM608 1133q-77 0 -119.5 42.5t-42.5 118.5q0 74 42.5 113t119.5 39q78 0 122 -39t44 -113q0 -76 -44.5 -118.5t-121.5 -42.5zM207 0v956h262v-956h-262z" />
    <glyph glyph-name="eth" unicode="&#xf0;" horiz-adv-x="1726" 
d="M1401 1190q209 -185 209 -537v-41q0 -176 -51 -301t-154 -201t-247 -110.5t-341 -34.5q-175 0 -303.5 22t-225 72t-145.5 135.5t-49 206.5q0 201 164 286t512 85q453 0 576 -197v95q-3 250 -158 370l-324 -229l-73 102l276 193q-262 104 -834 24v240q724 80 1059 -106
l279 196l74 -98zM831 199q111 0 196 13t134.5 33t80.5 48t41.5 52.5t10.5 51.5q0 172 -475 172q-175 0 -277.5 -20t-143 -57t-40.5 -97q0 -100 110 -148t363 -48z" />
    <glyph glyph-name="ntilde" unicode="&#xf1;" horiz-adv-x="1550" 
d="M342 1069q-13 208 57.5 314t192.5 106q27 0 49.5 -5t45 -17.5t35.5 -22t39.5 -31t39.5 -31.5q10 -9 33.5 -32t34 -32t28.5 -18.5t35 -9.5q43 0 64 56t12 147h211q10 -204 -65 -314t-193 -110q-41 0 -79.5 17t-56.5 31.5t-59 51.5q-8 7 -28.5 27t-28 26t-22.5 17
t-27.5 14.5t-26.5 3.5q-46 0 -67 -49t-15 -139h-209zM915 989q457 0 457 -422v-567h-262v502q0 77 -24 130t-67.5 79t-89.5 36.5t-104 10.5q-113 0 -206 -37t-150 -94v-627h-262v956h242v-122q76 72 196 113.5t270 41.5z" />
    <glyph glyph-name="ograve" unicode="&#xf2;" horiz-adv-x="1511" 
d="M385 1368l131 182l408 -387l-88 -106zM756 -35q-104 0 -193.5 14t-171.5 48.5t-140 87.5t-92 136.5t-34 190.5v72q0 106 34 189t92 136t140 87.5t171.5 48.5t193.5 14t193 -14t171 -48.5t139.5 -87.5t92 -136t34.5 -189v-72q0 -107 -34.5 -190.5t-92 -136.5t-139.5 -87.5
t-171 -48.5t-193 -14zM756 186q71 0 131.5 12t116.5 40.5t88 83.5t32 133v49q0 62 -22 109.5t-57 76.5t-84.5 47t-99 24.5t-105.5 6.5t-105.5 -6.5t-99 -24.5t-85 -47t-57.5 -76.5t-22 -109.5v-49q0 -63 22 -111t57.5 -77.5t85 -48t99 -25.5t105.5 -7z" />
    <glyph glyph-name="oacute" unicode="&#xf3;" horiz-adv-x="1511" 
d="M1157 1368l-450 -311l-89 106l408 387zM756 -35q-104 0 -193.5 14t-171.5 48.5t-140 87.5t-92 136.5t-34 190.5v72q0 106 34 189t92 136t140 87.5t171.5 48.5t193.5 14t193 -14t171 -48.5t139.5 -87.5t92 -136t34.5 -189v-72q0 -107 -34.5 -190.5t-92 -136.5
t-139.5 -87.5t-171 -48.5t-193 -14zM756 186q71 0 131.5 12t116.5 40.5t88 83.5t32 133v49q0 62 -22 109.5t-57 76.5t-84.5 47t-99 24.5t-105.5 6.5t-105.5 -6.5t-99 -24.5t-85 -47t-57.5 -76.5t-22 -109.5v-49q0 -63 22 -111t57.5 -77.5t85 -48t99 -25.5t105.5 -7z" />
    <glyph glyph-name="ocircumflex" unicode="&#xf4;" horiz-adv-x="1511" 
d="M756 1325l-359 -268l-88 106l375 387h145l375 -387l-88 -106zM756 989q104 0 193 -14t171 -48.5t139.5 -87.5t92 -136t34.5 -189v-72q0 -107 -34.5 -190.5t-92 -136.5t-139.5 -87.5t-171 -48.5t-193 -14t-193.5 14t-171.5 48.5t-140 87.5t-92 136.5t-34 190.5v72
q0 106 34 189t92 136t140 87.5t171.5 48.5t193.5 14zM1124 455v49q0 62 -22 109.5t-57 76.5t-84.5 47t-99 24.5t-105.5 6.5t-105.5 -6.5t-99 -24.5t-85 -47t-57.5 -76.5t-22 -109.5v-49q0 -63 22 -111t57.5 -77.5t85 -48t99 -25.5t105.5 -7q71 0 131.5 12t116.5 40.5
t88 83.5t32 133z" />
    <glyph glyph-name="otilde" unicode="&#xf5;" horiz-adv-x="1511" 
d="M303 1069q-13 208 58 314t192 106q27 0 49.5 -5t45 -17.5t35.5 -22t39.5 -31t39.5 -31.5q10 -9 33.5 -32t34 -32t28.5 -18.5t35 -9.5q43 0 64 56t12 147h211q10 -204 -65 -314t-193 -110q-41 0 -79.5 17t-56.5 31.5t-59 51.5q-8 7 -28.5 27t-28 26t-22.5 17t-27.5 14.5
t-26.5 3.5q-46 0 -67 -49t-15 -139h-209zM756 -35q-104 0 -193.5 14t-171.5 48.5t-140 87.5t-92 136.5t-34 190.5v72q0 106 34 189t92 136t140 87.5t171.5 48.5t193.5 14t193 -14t171 -48.5t139.5 -87.5t92 -136t34.5 -189v-72q0 -107 -34.5 -190.5t-92 -136.5t-139.5 -87.5
t-171 -48.5t-193 -14zM756 186q71 0 131.5 12t116.5 40.5t88 83.5t32 133v49q0 62 -22 109.5t-57 76.5t-84.5 47t-99 24.5t-105.5 6.5t-105.5 -6.5t-99 -24.5t-85 -47t-57.5 -76.5t-22 -109.5v-49q0 -63 22 -111t57.5 -77.5t85 -48t99 -25.5t105.5 -7z" />
    <glyph glyph-name="odieresis" unicode="&#xf6;" horiz-adv-x="1511" 
d="M483 1133q-78 0 -119.5 42t-41.5 119q0 75 41.5 113.5t119.5 38.5t122 -39t44 -113q0 -76 -44.5 -118.5t-121.5 -42.5zM1026 1133q-77 0 -119.5 42.5t-42.5 118.5q0 74 42.5 113t119.5 39q78 0 122 -39t44 -113q0 -76 -44.5 -118.5t-121.5 -42.5zM756 -35
q-104 0 -193.5 14t-171.5 48.5t-140 87.5t-92 136.5t-34 190.5v72q0 106 34 189t92 136t140 87.5t171.5 48.5t193.5 14t193 -14t171 -48.5t139.5 -87.5t92 -136t34.5 -189v-72q0 -107 -34.5 -190.5t-92 -136.5t-139.5 -87.5t-171 -48.5t-193 -14zM756 186q71 0 131.5 12
t116.5 40.5t88 83.5t32 133v49q0 62 -22 109.5t-57 76.5t-84.5 47t-99 24.5t-105.5 6.5t-105.5 -6.5t-99 -24.5t-85 -47t-57.5 -76.5t-22 -109.5v-49q0 -63 22 -111t57.5 -77.5t85 -48t99 -25.5t105.5 -7z" />
    <glyph glyph-name="divide" unicode="&#xf7;" horiz-adv-x="1404" 
d="M698 877q-106 0 -149 32t-43 97q0 64 43 93t149 29q107 0 153 -29.5t46 -92.5q0 -64 -46.5 -96.5t-152.5 -32.5zM66 551v186h1273v-186h-1273zM698 158q-106 0 -150 31.5t-44 95.5q0 63 44 93t150 30t152.5 -30t46.5 -93q0 -64 -46.5 -96t-152.5 -31z" />
    <glyph glyph-name="oslash" unicode="&#xf8;" horiz-adv-x="1511" 
d="M1452 827l-119 -84q53 -92 53 -229v-72q0 -107 -34.5 -190.5t-92 -136.5t-139.5 -87.5t-171 -48.5t-193 -14q-246 0 -402 80l-145 -104l-148 161l127 91q-63 101 -63 249v72q0 106 34 189t92 136t140 87.5t171.5 48.5t193.5 14q263 0 420 -90l129 92zM387 455
q0 -58 19 -107l546 391q-86 29 -196 29q-56 0 -105.5 -6.5t-99 -24.5t-85 -47t-57.5 -76.5t-22 -109.5v-49zM1124 504q0 40 -10 82l-530 -379q79 -21 172 -21q71 0 131.5 12t116.5 40.5t88 83.5t32 133v49z" />
    <glyph glyph-name="ugrave" unicode="&#xf9;" horiz-adv-x="1548" 
d="M942 1163l-88 -106l-451 311l132 182zM1087 954h263v-956h-242v123q-76 -73 -195 -114.5t-266 -41.5q-454 0 -454 422v567h262v-501q0 -62 16.5 -109t43 -74.5t64.5 -44t75.5 -22.5t82.5 -6q112 0 202.5 37t147.5 94v626z" />
    <glyph glyph-name="uacute" unicode="&#xfa;" horiz-adv-x="1548" 
d="M1176 1368l-451 -311l-88 106l407 387zM1087 954h263v-956h-242v123q-76 -73 -195 -114.5t-266 -41.5q-454 0 -454 422v567h262v-501q0 -62 16.5 -109t43 -74.5t64.5 -44t75.5 -22.5t82.5 -6q112 0 202.5 37t147.5 94v626z" />
    <glyph glyph-name="ucircumflex" unicode="&#xfb;" horiz-adv-x="1548" 
d="M774 1325l-358 -268l-88 106l374 387h146l375 -387l-88 -106zM1087 954h263v-956h-242v123q-76 -73 -195 -114.5t-266 -41.5q-454 0 -454 422v567h262v-501q0 -62 16.5 -109t43 -74.5t64.5 -44t75.5 -22.5t82.5 -6q112 0 202.5 37t147.5 94v626z" />
    <glyph glyph-name="udieresis" unicode="&#xfc;" horiz-adv-x="1548" 
d="M502 1133q-78 0 -120 42t-42 119q0 75 42 113.5t120 38.5t122 -39t44 -113q0 -76 -44.5 -118.5t-121.5 -42.5zM1044 1133q-76 0 -118.5 42.5t-42.5 118.5q0 74 42 113t119 39q78 0 122 -39t44 -113q0 -76 -44.5 -118.5t-121.5 -42.5zM1087 954h263v-956h-242v123
q-76 -73 -195 -114.5t-266 -41.5q-454 0 -454 422v567h262v-501q0 -62 16.5 -109t43 -74.5t64.5 -44t75.5 -22.5t82.5 -6q112 0 202.5 37t147.5 94v626z" />
    <glyph glyph-name="yacute" unicode="&#xfd;" horiz-adv-x="1439" 
d="M1122 1368l-450 -311l-88 106l407 387zM1087 956h324l-756 -1349h-278l198 360l-546 989h323l359 -729z" />
    <glyph glyph-name="thorn" unicode="&#xfe;" horiz-adv-x="1632" 
d="M934 989q96 0 178 -14t156 -48.5t126 -87.5t82.5 -136t30.5 -189v-72q0 -107 -30.5 -190t-83 -136.5t-128 -88t-159.5 -48.5t-184 -14q-332 0 -471 133v-491h-263v1923h254v-703q140 162 492 162zM1245 455v49q0 62 -22.5 109.5t-58 76.5t-85.5 47t-100 24.5t-107 6.5
q-378 0 -421 -209v-158q11 -63 47.5 -106.5t95.5 -66.5t125.5 -32.5t152.5 -9.5q72 0 133.5 12t118 40.5t89 83.5t32.5 133z" />
    <glyph glyph-name="ydieresis" unicode="&#xff;" horiz-adv-x="1439" 
d="M449 1133q-78 0 -120 42t-42 119q0 75 42 113.5t120 38.5t121.5 -39t43.5 -113q0 -76 -44 -118.5t-121 -42.5zM991 1133q-77 0 -119.5 42.5t-42.5 118.5q0 74 42.5 113t119.5 39q78 0 122 -39t44 -113q0 -76 -44.5 -118.5t-121.5 -42.5zM1087 956h324l-756 -1349h-278
l198 360l-546 989h323l359 -729z" />
    <glyph glyph-name="Amacron" unicode="&#x100;" horiz-adv-x="1738" 
d="M1360 1835v-211h-981v211h981zM1384 0l-106 238h-819l-105 -238h-293l644 1389h327l645 -1389h-293zM553 451h631l-316 708z" />
    <glyph glyph-name="amacron" unicode="&#x101;" horiz-adv-x="1415" 
d="M1180 1413v-211h-981v211h981zM696 989q99 0 177 -10.5t151 -39t121.5 -74.5t77 -121t28.5 -175v-569h-237v139q-137 -174 -504 -174q-387 0 -387 301q0 153 95.5 227t297.5 74h471q-14 113 -99.5 157t-240.5 44q-134 0 -225.5 -28.5t-179.5 -96.5l-99 193
q195 153 553 153zM569 164q353 0 420 164v49h-469q-133 0 -133 -98q0 -115 182 -115z" />
    <glyph glyph-name="Abreve" unicode="&#x102;" horiz-adv-x="1738" 
d="M872 1473q-116 0 -206.5 35t-146 97t-83.5 141.5t-28 172.5h235q0 -103 57.5 -177.5t171.5 -74.5q59 0 104 21.5t70 58.5t37.5 80.5t12.5 91.5h237q0 -94 -28 -173t-82.5 -141t-144.5 -97t-206 -35zM1384 0l-106 238h-819l-105 -238h-293l644 1389h327l645 -1389h-293z
M553 451h631l-316 708z" />
    <glyph glyph-name="abreve" unicode="&#x103;" horiz-adv-x="1415" 
d="M692 1051q-116 0 -206.5 35t-146 96.5t-84 141.5t-28.5 173h236q0 -103 57.5 -177.5t171.5 -74.5q78 0 130 38.5t72.5 93t20.5 120.5h238q0 -94 -28 -173t-82.5 -141t-144.5 -97t-206 -35zM696 989q99 0 177 -10.5t151 -39t121.5 -74.5t77 -121t28.5 -175v-569h-237v139
q-137 -174 -504 -174q-387 0 -387 301q0 153 95.5 227t297.5 74h471q-14 113 -99.5 157t-240.5 44q-134 0 -225.5 -28.5t-179.5 -96.5l-99 193q195 153 553 153zM569 164q353 0 420 164v49h-469q-133 0 -133 -98q0 -115 182 -115z" />
    <glyph glyph-name="Aogonek" unicode="&#x104;" horiz-adv-x="1738" 
d="M1470 -264q94 0 172 26l11 -159q-121 -29 -234 -29q-139 0 -201.5 43.5t-62.5 132.5q0 82 62 147t165 107l-104 234h-819l-105 -238h-293l644 1389h327l643 -1383l4 -6q-147 -33 -232 -88t-85 -113q0 -63 108 -63zM553 451h631l-316 708z" />
    <glyph glyph-name="aogonek" unicode="&#x105;" horiz-adv-x="1415" 
d="M1044 -262q95 0 173 26l10 -159q-97 -31 -234 -31q-138 0 -201 44t-63 132q0 92 78.5 156.5t206.5 103.5v129q-137 -174 -504 -174q-387 0 -387 301q0 153 95.5 227t297.5 74h471q-14 113 -99.5 157t-240.5 44q-134 0 -225.5 -28.5t-179.5 -96.5l-99 193q195 153 553 153
q99 0 177 -10.5t151 -39t121.5 -74.5t77 -121t28.5 -175v-567l2 -2q-159 -49 -238 -96.5t-79 -106.5t108 -59zM569 164q353 0 420 164v49h-469q-133 0 -133 -98q0 -115 182 -115z" />
    <glyph glyph-name="Cacute" unicode="&#x106;" horiz-adv-x="1765" 
d="M1296 1790l-450 -311l-88 106l407 387zM1696 336q-117 -190 -307.5 -280.5t-468.5 -90.5q-386 0 -589.5 168.5t-203.5 517.5v78q0 347 204 515.5t589 168.5q124 0 229 -16t204.5 -53.5t181.5 -105t140 -163.5l-200 -168q-94 135 -227.5 198.5t-327.5 63.5
q-119 0 -213 -24t-165.5 -75t-110 -136.5t-38.5 -202.5v-82q0 -117 38.5 -203t110 -137t165.5 -75.5t213 -24.5q206 0 340.5 66t228.5 219z" />
    <glyph glyph-name="cacute" unicode="&#x107;" horiz-adv-x="1449" 
d="M1126 1368l-450 -311l-88 106l407 387zM1300 150q-97 -103 -238 -144t-337 -41q-98 0 -183 14t-163 48.5t-133 87.5t-88 136.5t-33 190.5v72q0 107 33 189.5t89 135.5t136.5 87.5t170 48.5t196.5 14q179 0 311.5 -37.5t241.5 -134.5l-154 -172q-125 123 -393 123
q-369 0 -369 -264v-49q0 -269 375 -269q268 0 403 138z" />
    <glyph glyph-name="Cdotaccent" unicode="&#x10a;" horiz-adv-x="1765" 
d="M891 1559q-77 0 -118.5 41.5t-41.5 119.5q0 73 41.5 111.5t118.5 38.5q79 0 123.5 -38.5t44.5 -111.5q0 -77 -44.5 -119t-123.5 -42zM1696 336q-117 -190 -307.5 -280.5t-468.5 -90.5q-386 0 -589.5 168.5t-203.5 517.5v78q0 347 204 515.5t589 168.5q124 0 229 -16
t204.5 -53.5t181.5 -105t140 -163.5l-200 -168q-94 135 -227.5 198.5t-327.5 63.5q-119 0 -213 -24t-165.5 -75t-110 -136.5t-38.5 -202.5v-82q0 -117 38.5 -203t110 -137t165.5 -75.5t213 -24.5q206 0 340.5 66t228.5 219z" />
    <glyph glyph-name="cdotaccent" unicode="&#x10b;" horiz-adv-x="1449" 
d="M721 1137q-77 0 -118.5 41.5t-41.5 119.5q0 73 41.5 111.5t118.5 38.5q79 0 123.5 -38.5t44.5 -111.5q0 -77 -44.5 -119t-123.5 -42zM1300 150q-97 -103 -238 -144t-337 -41q-98 0 -183 14t-163 48.5t-133 87.5t-88 136.5t-33 190.5v72q0 107 33 189.5t89 135.5
t136.5 87.5t170 48.5t196.5 14q179 0 311.5 -37.5t241.5 -134.5l-154 -172q-125 123 -393 123q-369 0 -369 -264v-49q0 -269 375 -269q268 0 403 138z" />
    <glyph glyph-name="Ccaron" unicode="&#x10c;" horiz-adv-x="1765" 
d="M969 1479h-146l-374 389l88 104l358 -268l360 268l88 -104zM1489 494l207 -158q-117 -190 -307.5 -280.5t-468.5 -90.5q-386 0 -589.5 168.5t-203.5 517.5v78q0 347 204 515.5t589 168.5q124 0 229 -16t204.5 -53.5t181.5 -105t140 -163.5l-200 -168
q-94 135 -227.5 198.5t-327.5 63.5q-119 0 -213 -24t-165.5 -75t-110 -136.5t-38.5 -202.5v-82q0 -117 38.5 -203t110 -137t165.5 -75.5t213 -24.5q206 0 340.5 66t228.5 219z" />
    <glyph glyph-name="ccaron" unicode="&#x10d;" horiz-adv-x="1449" 
d="M799 1057h-146l-374 389l88 104l358 -268l360 268l89 -104zM762 186q268 0 403 138l135 -174q-97 -103 -238 -144t-337 -41q-98 0 -183 14t-163 48.5t-133 87.5t-88 136.5t-33 190.5v72q0 107 33 189.5t89 135.5t136.5 87.5t170 48.5t196.5 14q179 0 311.5 -37.5
t241.5 -134.5l-154 -172q-125 123 -393 123q-369 0 -369 -264v-49q0 -269 375 -269z" />
    <glyph glyph-name="Dcaron" unicode="&#x10e;" horiz-adv-x="1865" 
d="M1014 1479h-146l-374 389l88 104l358 -268l360 268l89 -104zM965 1378q375 0 575.5 -160.5t200.5 -492.5v-70q0 -172 -52 -298t-153.5 -204t-243 -115.5t-327.5 -37.5h-748v1378h748zM1475 653v74q0 215 -128.5 311.5t-381.5 96.5h-484v-891h484q255 0 382.5 94
t127.5 315z" />
    <glyph glyph-name="dcaron" unicode="&#x10f;" horiz-adv-x="1783" 
d="M1669 1532l221 -39l-121 -557l-135 18zM1188 838v692h262v-1530h-221l-8 172q-141 -207 -514 -207q-105 0 -190.5 14t-160 48.5t-124.5 88t-78.5 136t-28.5 190.5v72q0 106 31.5 189t85 136t129.5 87.5t159 48.5t179 14q333 0 479 -151zM756 186q67 0 129 8.5t123.5 27
t108.5 54t71 84.5v242q-20 48 -66.5 82t-108.5 51.5t-124.5 25t-132.5 7.5q-56 0 -105.5 -6.5t-99 -24.5t-85 -47t-57.5 -76.5t-22 -109.5v-49q0 -63 22 -111t57.5 -77.5t85 -48t99 -25.5t105.5 -7z" />
    <glyph glyph-name="Dcroat" unicode="&#x110;" horiz-adv-x="1878" 
d="M965 1378q375 0 575.5 -160.5t200.5 -492.5v-70q0 -172 -52 -298t-153.5 -204t-243 -115.5t-327.5 -37.5h-748v584h-135v211h135v583h748zM1475 653v74q0 215 -128.5 311.5t-381.5 96.5h-484v-340h588v-211h-588v-340h484q255 0 382.5 94t127.5 315z" />
    <glyph glyph-name="dcroat" unicode="&#x111;" horiz-adv-x="1748" 
d="M1614 1391v-211h-164v-1180h-221l-8 172q-141 -207 -514 -207q-105 0 -190.5 14t-160 48.5t-124.5 88t-78.5 136t-28.5 190.5v72q0 106 31.5 189t85 136t129.5 87.5t159 48.5t179 14q333 0 479 -151v342h-711v211h711v139h262v-139h164zM756 186q67 0 129 8.5t123.5 27
t108.5 54t71 84.5v242q-20 48 -66.5 82t-108.5 51.5t-124.5 25t-132.5 7.5q-56 0 -105.5 -6.5t-99 -24.5t-85 -47t-57.5 -76.5t-22 -109.5v-49q0 -63 22 -111t57.5 -77.5t85 -48t99 -25.5t105.5 -7z" />
    <glyph glyph-name="Emacron" unicode="&#x112;" horiz-adv-x="1650" 
d="M1366 1835v-211h-981v211h981zM481 240h1065v-240h-1329v1378h1319v-237h-1055v-332h846v-209h-846v-360z" />
    <glyph glyph-name="emacron" unicode="&#x113;" horiz-adv-x="1396" 
d="M1202 1413v-211h-981v211h981zM1305 526v-155h-910q42 -185 324 -185q156 0 250 24t155 85l168 -145q-95 -98 -235 -141.5t-338 -43.5q-97 0 -180.5 13.5t-161.5 47t-132.5 85t-87 133t-32.5 186.5v96q0 104 33 185t88 132.5t133 85t161.5 47t180.5 13.5q65 0 123.5 -6
t118.5 -21t109.5 -38.5t93.5 -60.5t74 -84t47.5 -111.5t17.5 -141.5zM721 768q-329 0 -334 -233h655q-5 233 -321 233z" />
    <glyph glyph-name="Edotaccent" unicode="&#x116;" horiz-adv-x="1650" 
d="M872 1559q-77 0 -118 41.5t-41 119.5q0 73 41 111.5t118 38.5q79 0 123.5 -38.5t44.5 -111.5q0 -77 -44.5 -119t-123.5 -42zM481 240h1065v-240h-1329v1378h1319v-237h-1055v-332h846v-209h-846v-360z" />
    <glyph glyph-name="edotaccent" unicode="&#x117;" horiz-adv-x="1396" 
d="M709 1137q-77 0 -118.5 41.5t-41.5 119.5q0 73 41.5 111.5t118.5 38.5q79 0 123.5 -38.5t44.5 -111.5q0 -77 -44.5 -119t-123.5 -42zM1305 526v-155h-910q42 -185 324 -185q156 0 250 24t155 85l168 -145q-95 -98 -235 -141.5t-338 -43.5q-97 0 -180.5 13.5t-161.5 47
t-132.5 85t-87 133t-32.5 186.5v96q0 104 33 185t88 132.5t133 85t161.5 47t180.5 13.5q65 0 123.5 -6t118.5 -21t109.5 -38.5t93.5 -60.5t74 -84t47.5 -111.5t17.5 -141.5zM721 768q-329 0 -334 -233h655q-5 233 -321 233z" />
    <glyph glyph-name="Eogonek" unicode="&#x118;" horiz-adv-x="1650" 
d="M1339 -264q94 0 172 26l11 -159q-121 -29 -234 -29q-139 0 -201.5 43.5t-62.5 132.5q0 81 58.5 144.5t158.5 105.5h-1024v1378h1319v-237h-1055v-332h846v-209h-846v-360h1065v-238l2 -2q-147 -33 -232 -88t-85 -113q0 -63 108 -63z" />
    <glyph glyph-name="eogonek" unicode="&#x119;" horiz-adv-x="1396" 
d="M1305 526v-155h-910q42 -185 324 -185q156 0 250 24t155 85l168 -145q-108 -111 -280 -154q-122 -42 -182 -84t-60 -94q0 -60 109 -60q91 0 172 27l10 -160q-97 -31 -234 -31q-138 0 -201 44.5t-63 132.5q0 116 133 194q-95 2 -175.5 16.5t-155 48.5t-126.5 85.5
t-83 131.5t-31 183v96q0 104 33 185t88 132.5t133 85t161.5 47t180.5 13.5q65 0 123.5 -6t118.5 -21t109.5 -38.5t93.5 -60.5t74 -84t47.5 -111.5t17.5 -141.5zM721 768q-329 0 -334 -233h655q-5 233 -321 233z" />
    <glyph glyph-name="Ecaron" unicode="&#x11a;" horiz-adv-x="1650" 
d="M950 1479h-145l-375 389l88 104l359 -268l360 268l88 -104zM481 240h1065v-240h-1329v1378h1319v-237h-1055v-332h846v-209h-846v-360z" />
    <glyph glyph-name="ecaron" unicode="&#x11b;" horiz-adv-x="1396" 
d="M786 1057h-145l-375 389l88 104l359 -268l360 268l88 -104zM1305 526v-155h-910q42 -185 324 -185q156 0 250 24t155 85l168 -145q-95 -98 -235 -141.5t-338 -43.5q-97 0 -180.5 13.5t-161.5 47t-132.5 85t-87 133t-32.5 186.5v96q0 104 33 185t88 132.5t133 85t161.5 47
t180.5 13.5q65 0 123.5 -6t118.5 -21t109.5 -38.5t93.5 -60.5t74 -84t47.5 -111.5t17.5 -141.5zM721 768q-329 0 -334 -233h655q-5 233 -321 233z" />
    <glyph glyph-name="Gbreve" unicode="&#x11e;" horiz-adv-x="1806" 
d="M897 1473q-116 0 -206.5 35t-146 96.5t-84 141.5t-28.5 173h236q0 -103 57.5 -177.5t171.5 -74.5q78 0 130 38.5t72.5 93t20.5 120.5h238q0 -94 -28 -173t-82.5 -141t-144.5 -97t-206 -35zM739 745h938v-569q-247 -211 -751 -211q-799 0 -799 686v78q0 347 204 515.5
t589 168.5q243 0 421 -63t326 -211l-168 -209q-198 239 -579 239q-119 0 -213 -24t-165.5 -75t-110 -136.5t-38.5 -202.5v-82q0 -118 39 -203t114.5 -137t178 -76t236.5 -24q310 0 450 108v220h-672v208z" />
    <glyph glyph-name="gbreve" unicode="&#x11f;" horiz-adv-x="1454" 
d="M760 1051q-116 0 -206.5 35t-146 96.5t-84 141.5t-28.5 173h235q0 -103 58 -177.5t172 -74.5q78 0 130 38.5t72.5 93t20.5 120.5h238q0 -94 -28 -173t-82.5 -141t-144.5 -97t-206 -35zM1053 956h247v-880q0 -105 -21 -186t-62.5 -135.5t-95 -91t-128.5 -56t-151 -27.5
t-174 -8q-185 0 -320 41.5t-201 118.5l91 186q67 -65 175.5 -103t223.5 -38q54 0 95 3.5t90.5 13t84.5 30t66 52t47 82t16 116.5v55q-140 -129 -426 -129q-86 0 -157.5 12t-139.5 43.5t-114.5 82.5t-74.5 133t-28 190v69q0 105 28.5 186t76 131.5t114.5 83t138.5 45.5
t154.5 13q163 0 279.5 -42.5t165.5 -131.5v141zM694 211q61 0 115 9t101.5 28.5t80.5 53.5t45 81v225q-50 162 -346 162q-53 0 -98.5 -7t-89.5 -25t-75 -46t-50 -73t-19 -103v-51q0 -58 19 -102.5t50 -73t75.5 -46.5t91 -25t100.5 -7z" />
    <glyph glyph-name="Gdotaccent" unicode="&#x120;" horiz-adv-x="1806" 
d="M891 1559q-77 0 -118.5 41.5t-41.5 119.5q0 73 41.5 111.5t118.5 38.5q79 0 123.5 -38.5t44.5 -111.5q0 -77 -44.5 -119t-123.5 -42zM739 745h938v-569q-247 -211 -751 -211q-799 0 -799 686v78q0 347 204 515.5t589 168.5q243 0 421 -63t326 -211l-168 -209
q-198 239 -579 239q-119 0 -213 -24t-165.5 -75t-110 -136.5t-38.5 -202.5v-82q0 -118 39 -203t114.5 -137t178 -76t236.5 -24q310 0 450 108v220h-672v208z" />
    <glyph glyph-name="gdotaccent" unicode="&#x121;" horiz-adv-x="1454" 
d="M754 1137q-77 0 -118.5 41.5t-41.5 119.5q0 73 41.5 111.5t118.5 38.5q79 0 123.5 -38.5t44.5 -111.5q0 -77 -44.5 -119t-123.5 -42zM1053 956h247v-880q0 -105 -21 -186t-62.5 -135.5t-95 -91t-128.5 -56t-151 -27.5t-174 -8q-185 0 -320 41.5t-201 118.5l91 186
q67 -65 175.5 -103t223.5 -38q54 0 95 3.5t90.5 13t84.5 30t66 52t47 82t16 116.5v55q-140 -129 -426 -129q-86 0 -157.5 12t-139.5 43.5t-114.5 82.5t-74.5 133t-28 190v69q0 105 28.5 186t76 131.5t114.5 83t138.5 45.5t154.5 13q163 0 279.5 -42.5t165.5 -131.5v141z
M694 211q61 0 115 9t101.5 28.5t80.5 53.5t45 81v225q-50 162 -346 162q-53 0 -98.5 -7t-89.5 -25t-75 -46t-50 -73t-19 -103v-51q0 -58 19 -102.5t50 -73t75.5 -46.5t91 -25t100.5 -7z" />
    <glyph glyph-name="Gcommaaccent" unicode="&#x122;" horiz-adv-x="1806" 
d="M739 745h938v-569q-247 -211 -751 -211q-799 0 -799 686v78q0 347 204 515.5t589 168.5q243 0 421 -63t326 -211l-168 -209q-198 239 -579 239q-119 0 -213 -24t-165.5 -75t-110 -136.5t-38.5 -202.5v-82q0 -118 39 -203t114.5 -137t178 -76t236.5 -24q310 0 450 108v220
h-672v208zM881 -92q137 0 217 -62t80 -172q0 -159 -139 -225.5t-392 -32.5l19 138q192 -32 272 3.5t80 133.5q0 55 -39 86q-7 -109 -141 -109q-64 0 -104 27.5t-40 81.5q0 60 46.5 95.5t140.5 35.5z" />
    <glyph glyph-name="gcommaaccent" unicode="&#x123;" horiz-adv-x="1454" 
d="M784 1083q-137 0 -217 62t-80 172q0 159 139 225.5t392 32.5l-19 -137q-192 32 -272 -4t-80 -134q0 -55 39 -86q7 109 141 109q64 0 104 -27.5t40 -81.5q0 -60 -46.5 -95.5t-140.5 -35.5zM1053 956h247v-880q0 -105 -21 -186t-62.5 -135.5t-95 -91t-128.5 -56t-151 -27.5
t-174 -8q-185 0 -320 41.5t-201 118.5l91 186q67 -65 175.5 -103t223.5 -38q54 0 95 3.5t90.5 13t84.5 30t66 52t47 82t16 116.5v55q-140 -129 -426 -129q-86 0 -157.5 12t-139.5 43.5t-114.5 82.5t-74.5 133t-28 190v69q0 105 28.5 186t76 131.5t114.5 83t138.5 45.5
t154.5 13q163 0 279.5 -42.5t165.5 -131.5v141zM694 211q61 0 115 9t101.5 28.5t80.5 53.5t45 81v225q-50 162 -346 162q-53 0 -98.5 -7t-89.5 -25t-75 -46t-50 -73t-19 -103v-51q0 -58 19 -102.5t50 -73t75.5 -46.5t91 -25t100.5 -7z" />
    <glyph glyph-name="Hbar" unicode="&#x126;" horiz-adv-x="1886" 
d="M1778 1137v-195h-123v-942h-266v471h-893v-471h-265v942h-125v195h125v241h265v-241h893v241h266v-241h123zM1389 709v233h-893v-233h893z" />
    <glyph glyph-name="hbar" unicode="&#x127;" horiz-adv-x="1228" 
d="M907 989q72 0 133.5 -10.5t122.5 -39.5t103.5 -74.5t69 -121.5t26.5 -176v-567h-262v502q0 256 -283 256q-114 0 -206.5 -37t-149.5 -94v-627h-262v1157h-125v211h125v162h241v-162h561v-211h-561v-323q75 72 196.5 113.5t270.5 41.5z" />
    <glyph glyph-name="Imacron" unicode="&#x12a;" horiz-adv-x="698" 
d="M840 1624h-981v211h981v-211zM217 0v1378h264v-1378h-264z" />
    <glyph glyph-name="imacron" unicode="&#x12b;" horiz-adv-x="675" 
d="M827 1202h-981v211h981v-211zM207 0v956h262v-956h-262z" />
    <glyph glyph-name="Iogonek" unicode="&#x12e;" horiz-adv-x="698" 
d="M356 -256q91 0 172 27l11 -160q-121 -29 -234 -29q-139 0 -201.5 43.5t-62.5 132.5q0 76 54 138t145 104h-23v1378h264v-1310q20 4 31 4l53 -64q-147 -33 -232 -88t-85 -113q0 -63 108 -63z" />
    <glyph glyph-name="iogonek" unicode="&#x12f;" horiz-adv-x="675" 
d="M334 1137q-77 0 -118.5 41.5t-41.5 119.5q0 73 41.5 111.5t118.5 38.5q79 0 123.5 -38.5t44.5 -111.5q0 -77 -44.5 -119t-123.5 -42zM471 0q-159 -49 -238 -96.5t-79 -106.5t108 -59q94 0 172 26l10 -159q-97 -31 -233 -31q-138 0 -201 44t-63 132q0 163 260 252v954h262
v-954z" />
    <glyph glyph-name="Idotaccent" unicode="&#x130;" horiz-adv-x="698" 
d="M346 1559q-77 0 -118.5 41.5t-41.5 119.5q0 73 41.5 111.5t118.5 38.5q79 0 123.5 -38.5t44.5 -111.5q0 -77 -44.5 -119t-123.5 -42zM217 0v1378h264v-1378h-264z" />
    <glyph glyph-name="dotlessi" unicode="&#x131;" horiz-adv-x="675" 
d="M207 0v956h262v-956h-262z" />
    <glyph glyph-name="Kcommaaccent" unicode="&#x136;" horiz-adv-x="1730" 
d="M1047 850l622 -850h-330l-495 678l-363 -307v-371h-264v1378h264v-700l852 698h334zM915 -92q137 0 217 -62t80 -172q0 -159 -138.5 -225.5t-391.5 -32.5l18 138q100 -15 168 -15t109 20.5t58.5 52t17.5 79.5q0 55 -39 86q-7 -109 -142 -109q-64 0 -103.5 27.5
t-39.5 81.5q0 60 46 95.5t140 35.5z" />
    <glyph glyph-name="kcommaaccent" unicode="&#x137;" horiz-adv-x="1400" 
d="M915 623l433 -623h-322l-309 461l-266 -217v-244h-263v1518h263v-979l528 417h346zM686 -92q137 0 217 -62t80 -172q0 -159 -138.5 -225.5t-391.5 -32.5l18 138q192 -32 272 3.5t80 133.5q0 55 -39 86q-7 -109 -141 -109q-64 0 -103.5 27.5t-39.5 81.5q0 60 46 95.5
t140 35.5z" />
    <glyph glyph-name="Lacute" unicode="&#x139;" horiz-adv-x="1464" 
d="M752 1790l-451 -311l-88 106l408 387zM481 244h912v-244h-1176v1378h264v-1134z" />
    <glyph glyph-name="lacute" unicode="&#x13a;" horiz-adv-x="657" 
d="M731 1942l-450 -312l-88 107l407 387zM199 0v1530h262v-1530h-262z" />
    <glyph glyph-name="Lcommaaccent" unicode="&#x13b;" horiz-adv-x="1464" 
d="M481 244h912v-244h-1176v1378h264v-1134zM717 -92q137 0 217 -62t80 -172q0 -159 -139 -225.5t-392 -32.5l19 138q192 -32 272 3.5t80 133.5q0 55 -39 86q-7 -109 -141 -109q-64 0 -104 27.5t-40 81.5q0 60 46.5 95.5t140.5 35.5z" />
    <glyph glyph-name="lcommaaccent" unicode="&#x13c;" horiz-adv-x="657" 
d="M461 1530v-1530h-262v1530h262zM326 -92q137 0 217 -62t80 -172q0 -159 -139 -225.5t-392 -32.5l19 138q192 -32 272 3.5t80 133.5q0 55 -39 86q-7 -109 -141 -109q-64 0 -104 27.5t-40 81.5q0 60 46.5 95.5t140.5 35.5z" />
    <glyph glyph-name="Lcaron" unicode="&#x13d;" horiz-adv-x="1464" 
d="M1130 1343l-120 -557l-136 19l35 577zM481 244h912v-244h-1176v1378h264v-1134z" />
    <glyph glyph-name="lcaron" unicode="&#x13e;" horiz-adv-x="716" 
d="M862 1497l-121 -557l-135 18l35 578zM199 0v1530h262v-1530h-262z" />
    <glyph glyph-name="Lslash" unicode="&#x141;" horiz-adv-x="1464" 
d="M481 244h912v-244h-1176v463l-213 -117l-100 184l313 172v676h264v-530l416 229l102 -184l-518 -285v-364z" />
    <glyph glyph-name="lslash" unicode="&#x142;" horiz-adv-x="962" 
d="M1042 965l-426 -234v-731h-262v586l-307 -168l-100 184l407 225v703h262v-559l324 178z" />
    <glyph glyph-name="Nacute" unicode="&#x143;" horiz-adv-x="1835" 
d="M1319 1790l-451 -311l-88 106l408 387zM1358 1378h260v-1378h-264l-877 1006v-1006h-260v1378h264l877 -1003v1003z" />
    <glyph glyph-name="nacute" unicode="&#x144;" horiz-adv-x="1550" 
d="M1196 1368l-451 -311l-88 106l408 387zM915 989q457 0 457 -422v-567h-262v502q0 77 -24 130t-67.5 79t-89.5 36.5t-104 10.5q-113 0 -206 -37t-150 -94v-627h-262v956h242v-122q76 72 196 113.5t270 41.5z" />
    <glyph glyph-name="Ncommaaccent" unicode="&#x145;" horiz-adv-x="1835" 
d="M1358 1378h260v-1378h-264l-877 1006v-1006h-260v1378h264l877 -1003v1003zM903 -92q137 0 217 -62t80 -172q0 -159 -138.5 -225.5t-391.5 -32.5l18 138q192 -32 272 3.5t80 133.5q0 55 -39 86q-7 -109 -141 -109q-64 0 -103.5 27.5t-39.5 81.5q0 60 46 95.5t140 35.5z
" />
    <glyph glyph-name="ncommaaccent" unicode="&#x146;" horiz-adv-x="1550" 
d="M915 989q457 0 457 -422v-567h-262v502q0 77 -24 130t-67.5 79t-89.5 36.5t-104 10.5q-113 0 -206 -37t-150 -94v-627h-262v956h242v-122q76 72 196 113.5t270 41.5zM762 -92q137 0 217 -62t80 -172q0 -159 -139 -225.5t-392 -32.5l19 138q192 -32 272 3.5t80 133.5
q0 55 -39 86q-7 -109 -141 -109q-64 0 -104 27.5t-40 81.5q0 60 46.5 95.5t140.5 35.5z" />
    <glyph glyph-name="Ncaron" unicode="&#x147;" horiz-adv-x="1835" 
d="M991 1479h-145l-375 389l88 104l359 -268l360 268l88 -104zM1358 1378h260v-1378h-264l-877 1006v-1006h-260v1378h264l877 -1003v1003z" />
    <glyph glyph-name="ncaron" unicode="&#x148;" horiz-adv-x="1550" 
d="M868 1057h-145l-375 389l88 104l359 -268l360 268l88 -104zM915 989q457 0 457 -422v-567h-262v502q0 77 -24 130t-67.5 79t-89.5 36.5t-104 10.5q-113 0 -206 -37t-150 -94v-627h-262v956h242v-122q76 72 196 113.5t270 41.5z" />
    <glyph glyph-name="Eng" unicode="&#x14a;" horiz-adv-x="1835" 
d="M1358 1378h260v-1200q0 -169 -38.5 -289.5t-115 -192t-180 -104t-242.5 -32.5q-272 0 -467 143l117 211q87 -73 159.5 -101t172.5 -28q130 0 210 49.5t109 171.5l-866 977v-983h-260v1378h264l879 -995z" />
    <glyph glyph-name="eng" unicode="&#x14b;" horiz-adv-x="1550" 
d="M915 989q457 0 457 -422v-456q0 -128 -30.5 -224t-83 -156.5t-132 -97.5t-168 -51t-200.5 -14l-21 219q87 0 150 13.5t116 48t80 99.5t27 161v393q0 77 -24 130t-67.5 79t-89.5 36.5t-104 10.5q-113 0 -206 -37t-150 -94v-627h-262v956h242v-122q76 72 196 113.5
t270 41.5z" />
    <glyph glyph-name="Omacron" unicode="&#x14c;" horiz-adv-x="1902" 
d="M1440 1624h-981v211h981v-211zM946 -35q-396 0 -607.5 169t-211.5 517v78q0 347 211.5 515.5t607.5 168.5q400 0 615 -168.5t215 -515.5v-78q0 -348 -215 -517t-615 -169zM946 209q127 0 227 24.5t177 75.5t118 137t41 203v82q0 117 -41 202.5t-118 136.5t-177 75
t-227 24q-124 0 -222.5 -24t-174 -75t-116 -136.5t-40.5 -202.5v-82q0 -117 40.5 -203t116 -137t174 -75.5t222.5 -24.5z" />
    <glyph glyph-name="omacron" unicode="&#x14d;" horiz-adv-x="1511" 
d="M1245 1202h-981v211h981v-211zM756 -35q-104 0 -193.5 14t-171.5 48.5t-140 87.5t-92 136.5t-34 190.5v72q0 106 34 189t92 136t140 87.5t171.5 48.5t193.5 14t193 -14t171 -48.5t139.5 -87.5t92 -136t34.5 -189v-72q0 -107 -34.5 -190.5t-92 -136.5t-139.5 -87.5
t-171 -48.5t-193 -14zM756 186q71 0 131.5 12t116.5 40.5t88 83.5t32 133v49q0 62 -22 109.5t-57 76.5t-84.5 47t-99 24.5t-105.5 6.5t-105.5 -6.5t-99 -24.5t-85 -47t-57.5 -76.5t-22 -109.5v-49q0 -63 22 -111t57.5 -77.5t85 -48t99 -25.5t105.5 -7z" />
    <glyph glyph-name="Ohungarumlaut" unicode="&#x150;" horiz-adv-x="1902" 
d="M1049 1911l-349 -428l-114 69l278 486zM1599 1800l-436 -336l-94 97l383 407zM946 -35q-396 0 -607.5 169t-211.5 517v78q0 347 211.5 515.5t607.5 168.5q400 0 615 -168.5t215 -515.5v-78q0 -348 -215 -517t-615 -169zM946 209q127 0 227 24.5t177 75.5t118 137t41 203
v82q0 117 -41 202.5t-118 136.5t-177 75t-227 24q-124 0 -222.5 -24t-174 -75t-116 -136.5t-40.5 -202.5v-82q0 -117 40.5 -203t116 -137t174 -75.5t222.5 -24.5z" />
    <glyph glyph-name="ohungarumlaut" unicode="&#x151;" horiz-adv-x="1511" 
d="M854 1489l-348 -428l-115 69l279 486zM1405 1378l-436 -336l-95 97l383 407zM756 -35q-104 0 -193.5 14t-171.5 48.5t-140 87.5t-92 136.5t-34 190.5v72q0 106 34 189t92 136t140 87.5t171.5 48.5t193.5 14t193 -14t171 -48.5t139.5 -87.5t92 -136t34.5 -189v-72
q0 -107 -34.5 -190.5t-92 -136.5t-139.5 -87.5t-171 -48.5t-193 -14zM756 186q71 0 131.5 12t116.5 40.5t88 83.5t32 133v49q0 62 -22 109.5t-57 76.5t-84.5 47t-99 24.5t-105.5 6.5t-105.5 -6.5t-99 -24.5t-85 -47t-57.5 -76.5t-22 -109.5v-49q0 -63 22 -111t57.5 -77.5
t85 -48t99 -25.5t105.5 -7z" />
    <glyph glyph-name="OE" unicode="&#x152;" horiz-adv-x="2934" 
d="M1765 240h1065v-240h-1329v119q-195 -158 -547 -158q-403 0 -615 170t-212 520v78q0 348 212 517t615 169q352 0 547 -158v121h1319v-237h-1055v-332h846v-209h-846v-360zM954 205q119 0 216 25t172.5 77t117 139t41.5 203v82q0 116 -41.5 202.5t-117 137.5t-172 75.5
t-216.5 24.5q-128 0 -228.5 -24.5t-176 -75.5t-116 -137t-40.5 -203v-82q0 -117 40.5 -203.5t116 -138.5t176 -77t228.5 -25z" />
    <glyph glyph-name="oe" unicode="&#x153;" horiz-adv-x="2398" 
d="M2304 526v-155h-909q42 -185 323 -185q156 0 250.5 24t155.5 85l168 -145q-95 -98 -235 -141.5t-339 -43.5q-319 0 -469 141q-161 -141 -493 -141q-104 0 -193.5 14t-171.5 48.5t-140 87.5t-92 136.5t-34 190.5v72q0 106 34 189t92 136t140 87.5t171.5 48.5t193.5 14
q332 0 493 -141q153 141 471 141q65 0 123.5 -6t118.5 -21t109.5 -38.5t93.5 -60.5t74 -84t47.5 -111.5t17.5 -141.5zM756 186q71 0 131.5 12t116.5 40.5t88 83.5t32 133v49q0 62 -22 109.5t-57 76.5t-84.5 47t-99 24.5t-105.5 6.5t-105.5 -6.5t-99 -24.5t-85 -47
t-57.5 -76.5t-22 -109.5v-49q0 -63 22 -111t57.5 -77.5t85 -48t99 -25.5t105.5 -7zM1720 768q-329 0 -334 -233h656q-5 233 -322 233z" />
    <glyph glyph-name="Racute" unicode="&#x154;" horiz-adv-x="1693" 
d="M1243 1790l-450 -311l-88 106l407 387zM1327 0l-346 461h-506v-461h-258v1378h854q262 0 391 -102t129 -342q0 -178 -83 -293t-242 -158l372 -483h-311zM475 1141v-449h576q129 0 201.5 60.5t72.5 181.5q0 116 -69.5 161.5t-204.5 45.5h-576z" />
    <glyph glyph-name="racute" unicode="&#x155;" horiz-adv-x="1114" 
d="M958 1368l-450 -311l-88 106l407 387zM805 989q182 0 305 -104l-129 -189q-106 76 -227 76q-97 0 -172 -47.5t-113 -134.5v-590h-262v956h242v-149q56 92 150.5 137t205.5 45z" />
    <glyph glyph-name="Rcommaaccent" unicode="&#x156;" horiz-adv-x="1693" 
d="M1266 483l372 -483h-311l-346 461h-506v-461h-258v1378h854q262 0 391 -102t129 -342q0 -178 -83 -293t-242 -158zM475 1141v-449h576q129 0 201.5 60.5t72.5 181.5q0 116 -69.5 161.5t-204.5 45.5h-576zM827 -92q137 0 217 -62t80 -172q0 -159 -138.5 -225.5
t-391.5 -32.5l18 138q100 -15 168 -15t109 20.5t58.5 52t17.5 79.5q0 55 -39 86q-7 -109 -142 -109q-64 0 -103.5 27.5t-39.5 81.5q0 60 46 95.5t140 35.5z" />
    <glyph glyph-name="rcommaaccent" unicode="&#x157;" horiz-adv-x="1114" 
d="M805 989q182 0 305 -104l-129 -189q-106 76 -227 76q-97 0 -172 -47.5t-113 -134.5v-590h-262v956h242v-149q56 92 150.5 137t205.5 45zM346 -92q137 0 217 -62t80 -172q0 -159 -138.5 -225.5t-391.5 -32.5l18 138q192 -32 272 3.5t80 133.5q0 55 -39 86
q-7 -109 -141 -109q-64 0 -103.5 27.5t-39.5 81.5q0 60 46 95.5t140 35.5z" />
    <glyph glyph-name="Rcaron" unicode="&#x158;" horiz-adv-x="1693" 
d="M915 1479h-145l-375 389l88 104l359 -268l360 268l88 -104zM1327 0l-346 461h-506v-461h-258v1378h854q262 0 391 -102t129 -342q0 -178 -83 -293t-242 -158l372 -483h-311zM475 1141v-449h576q129 0 201.5 60.5t72.5 181.5q0 116 -69.5 161.5t-204.5 45.5h-576z" />
    <glyph glyph-name="rcaron" unicode="&#x159;" horiz-adv-x="1114" 
d="M631 1057h-146l-374 389l88 104l358 -268l361 268l88 -104zM805 989q182 0 305 -104l-129 -189q-106 76 -227 76q-97 0 -172 -47.5t-113 -134.5v-590h-262v956h242v-149q56 92 150.5 137t205.5 45z" />
    <glyph glyph-name="Sacute" unicode="&#x15a;" horiz-adv-x="1757" 
d="M1280 1790l-451 -311l-88 106l408 387zM928 -35q-295 0 -486.5 56t-339.5 190l123 217q122 -111 284 -168t406 -57q222 0 344.5 51.5t122.5 144.5q0 77 -62 113t-216 51l-442 37q-517 42 -517 395q0 418 719 418q220 0 406.5 -46t361.5 -165l-102 -221
q-139 102 -305 149.5t-381 47.5q-158 0 -254 -20.5t-137 -58.5t-41 -98q0 -76 70 -114t239 -53l356 -33q294 -21 432 -106t138 -275q0 -119 -53.5 -208t-152 -142t-226.5 -79t-287 -26z" />
    <glyph glyph-name="sacute" unicode="&#x15b;" horiz-adv-x="1337" 
d="M1071 1368l-450 -311l-89 106l408 387zM643 -35q-369 0 -551 137l55 191q72 -66 207.5 -101.5t296.5 -35.5q326 0 326 133q0 49 -37.5 73t-114.5 27l-331 12q-204 7 -297 79.5t-93 191.5q0 164 146.5 240.5t406.5 76.5q180 0 314.5 -28.5t238.5 -100.5l-98 -172
q-136 109 -446 109q-135 0 -222.5 -28.5t-87.5 -88.5q0 -52 45 -74.5t129 -27.5l342 -17q180 -8 267.5 -68t87.5 -196q0 -332 -584 -332z" />
    <glyph glyph-name="Scedilla" unicode="&#x15e;" horiz-adv-x="1757" 
d="M928 -35h-17l-10 -51q152 6 225.5 -34t73.5 -132q0 -172 -309 -172q-81 0 -139 9.5t-78 19.5l26 119q68 -25 162 -25q158 0 158 57q0 32 -58.5 44.5t-197.5 6.5l27 160q-234 12 -397 69t-292 175l123 217q122 -111 284 -168t406 -57q222 0 344.5 51.5t122.5 144.5
q0 77 -62 113t-216 51l-442 37q-517 42 -517 395q0 418 719 418q220 0 406.5 -46t361.5 -165l-102 -221q-139 102 -305 149.5t-381 47.5q-158 0 -254 -20.5t-137 -58.5t-41 -98q0 -76 70 -114t239 -53l356 -33q294 -21 432 -106t138 -275q0 -119 -53.5 -208t-152 -142
t-226.5 -79t-287 -26z" />
    <glyph glyph-name="scedilla" unicode="&#x15f;" horiz-adv-x="1337" 
d="M1227 297q0 -315 -520 -330l-15 -61q152 6 225.5 -34t73.5 -132q0 -172 -293 -172q-85 0 -149.5 9.5t-83.5 19.5l27 118q65 -24 176 -24q143 0 143 57q0 32 -58.5 44.5t-197.5 6.5l29 166q-325 10 -492 137l55 191q72 -66 207.5 -101.5t296.5 -35.5q326 0 326 133
q0 49 -37.5 73t-114.5 27l-331 12q-204 7 -297 79.5t-93 191.5q0 164 146.5 240.5t406.5 76.5q180 0 314.5 -28.5t238.5 -100.5l-98 -172q-136 109 -446 109q-135 0 -222.5 -28.5t-87.5 -88.5q0 -52 45 -74.5t129 -27.5l342 -17q180 -8 267.5 -68t87.5 -196z" />
    <glyph glyph-name="Scaron" unicode="&#x160;" horiz-adv-x="1757" 
d="M952 1479h-145l-375 389l88 104l359 -268l360 268l88 -104zM1077 801q294 -21 432 -106t138 -275q0 -119 -53.5 -208t-152 -142t-226.5 -79t-287 -26q-295 0 -486.5 56t-339.5 190l123 217q122 -111 284 -168t406 -57q222 0 344.5 51.5t122.5 144.5q0 77 -62 113t-216 51
l-442 37q-517 42 -517 395q0 418 719 418q220 0 406.5 -46t361.5 -165l-102 -221q-139 102 -305 149.5t-381 47.5q-158 0 -254 -20.5t-137 -58.5t-41 -98q0 -76 70 -114t239 -53z" />
    <glyph glyph-name="scaron" unicode="&#x161;" horiz-adv-x="1337" 
d="M743 1057h-145l-375 389l88 104l359 -268l360 268l88 -104zM872 561q180 -8 267.5 -68t87.5 -196q0 -332 -584 -332q-369 0 -551 137l55 191q72 -66 207.5 -101.5t296.5 -35.5q326 0 326 133q0 49 -37.5 73t-114.5 27l-331 12q-204 7 -297 79.5t-93 191.5
q0 164 146.5 240.5t406.5 76.5q180 0 314.5 -28.5t238.5 -100.5l-98 -172q-136 109 -446 109q-135 0 -222.5 -28.5t-87.5 -88.5q0 -52 45 -74.5t129 -27.5z" />
    <glyph glyph-name="uni0162" unicode="&#x162;" horiz-adv-x="1550" 
d="M909 0h-92l-18 -86q152 6 225.5 -34t73.5 -132q0 -172 -310 -172q-81 0 -139 9.5t-78 19.5l27 119q68 -25 162 -25q158 0 158 57q0 32 -58.5 44.5t-197.5 6.5l32 193h-51v1141h-586v237h1436v-237h-584v-1141z" />
    <glyph glyph-name="uni0163" unicode="&#x163;" horiz-adv-x="1312" 
d="M737 -102q152 6 225.5 -34t73.5 -132q0 -172 -293 -172q-86 0 -150 9.5t-83 18.5l27 119q65 -24 176 -24q143 0 143 57q0 32 -58.5 44.5t-197.5 6.5l31 186q-85 13 -149 44.5t-114 88t-76 148.5t-26 217v270h-153v211h153v252h264v-252h656v-211h-656v-249
q0 -75 15.5 -132t40.5 -90.5t62 -54t74.5 -28t84.5 -7.5q197 0 367 88l88 -200q-78 -51 -200 -79t-263 -28h-45z" />
    <glyph glyph-name="Tcaron" unicode="&#x164;" horiz-adv-x="1550" 
d="M850 1479h-145l-375 389l88 104l358 -268l361 268l88 -104zM1493 1378v-237h-584v-1141h-266v1141h-586v237h1436z" />
    <glyph glyph-name="tcaron" unicode="&#x165;" horiz-adv-x="1312" 
d="M1016 1587l-121 -557l-135 19l35 577zM1174 272l88 -200q-78 -51 -200 -79t-263 -28q-69 0 -126 6t-113.5 21t-99.5 40t-80.5 64.5t-62 92t-38 125t-13.5 161.5v270h-153v211h153v252h264v-252h656v-211h-656v-249q0 -75 15.5 -132t40.5 -90.5t62 -54t74.5 -28t84.5 -7.5
q197 0 367 88z" />
    <glyph glyph-name="Tbar" unicode="&#x166;" horiz-adv-x="1550" 
d="M1493 1141h-584v-336h434v-211h-434v-594h-266v594h-436v211h436v336h-586v237h1436v-237z" />
    <glyph glyph-name="tbar" unicode="&#x167;" horiz-adv-x="1312" 
d="M1200 260l64 -209q-83 -39 -207.5 -62.5t-257.5 -23.5q-80 0 -144.5 8.5t-126.5 28.5t-107.5 56.5t-80.5 89.5t-54 131t-20 178h-153v125h153v202h-153v172h153v252h264v-252h656v-172h-656v-202h603v-125h-601q3 -66 20.5 -115.5t43 -79t63 -47.5t76.5 -24.5t88 -6.5
q208 0 377 76z" />
    <glyph glyph-name="Umacron" unicode="&#x16a;" horiz-adv-x="1765" 
d="M1374 1624h-981v211h981v-211zM889 -35q-725 0 -725 713v700h266v-702q0 -127 32.5 -218.5t94 -145t143.5 -78.5t189 -25q100 0 179 25t140 78.5t94 145.5t33 218v702h267v-700q0 -713 -713 -713z" />
    <glyph glyph-name="umacron" unicode="&#x16b;" horiz-adv-x="1548" 
d="M1264 1413v-211h-981v211h981zM1087 954h263v-956h-242v123q-76 -73 -195 -114.5t-266 -41.5q-454 0 -454 422v567h262v-501q0 -62 16.5 -109t43 -74.5t64.5 -44t75.5 -22.5t82.5 -6q112 0 202.5 37t147.5 94v626z" />
    <glyph glyph-name="Uring" unicode="&#x16e;" horiz-adv-x="1765" 
d="M885 1477q-432 0 -432 262v14q0 123 104 192.5t328 69.5q426 0 426 -262v-14q0 -262 -426 -262zM885 1636q235 0 235 105v10q0 102 -235 102q-240 0 -240 -102v-10q0 -49 58.5 -77t181.5 -28zM889 -35q-725 0 -725 713v700h266v-702q0 -127 32.5 -218.5t94 -145
t143.5 -78.5t189 -25q100 0 179 25t140 78.5t94 145.5t33 218v702h267v-700q0 -713 -713 -713z" />
    <glyph glyph-name="uring" unicode="&#x16f;" horiz-adv-x="1548" 
d="M774 1075q-212 0 -322 71.5t-110 192.5v15q0 120 110 191t322 71q211 0 318.5 -71t107.5 -191v-15q0 -122 -107.5 -193t-318.5 -71zM535 1352v-11q0 -104 239 -104q236 0 236 104v11q0 102 -236 102q-239 0 -239 -102zM1087 954h263v-956h-242v123q-76 -73 -195 -114.5
t-266 -41.5q-454 0 -454 422v567h262v-501q0 -62 16.5 -109t43 -74.5t64.5 -44t75.5 -22.5t82.5 -6q112 0 202.5 37t147.5 94v626z" />
    <glyph glyph-name="Uhungarumlaut" unicode="&#x170;" horiz-adv-x="1765" 
d="M983 1911l-348 -428l-115 69l279 486zM1534 1800l-436 -336l-94 97l382 407zM889 -35q-725 0 -725 713v700h266v-702q0 -127 32.5 -218.5t94 -145t143.5 -78.5t189 -25q100 0 179 25t140 78.5t94 145.5t33 218v702h267v-700q0 -713 -713 -713z" />
    <glyph glyph-name="uhungarumlaut" unicode="&#x171;" horiz-adv-x="1548" 
d="M872 1489l-348 -428l-114 69l278 486zM1423 1378l-436 -336l-94 97l383 407zM1087 328v626h263v-956h-242v123q-76 -73 -195 -114.5t-266 -41.5q-454 0 -454 422v567h262v-501q0 -62 16.5 -109t43 -74.5t64.5 -44t75.5 -22.5t82.5 -6q112 0 202.5 37t147.5 94z" />
    <glyph glyph-name="Uogonek" unicode="&#x172;" horiz-adv-x="1765" 
d="M1335 1378h267v-700q0 -603 -508 -696q-90 -34 -139.5 -76.5t-49.5 -85.5q0 -64 109 -64q91 0 172 27l10 -160q-121 -29 -233 -29q-139 0 -202 44t-63 133q0 112 119 196q-653 37 -653 711v700h266v-702q0 -127 32.5 -218.5t94 -145t143.5 -78.5t189 -25q100 0 179 25
t140 78.5t94 145.5t33 218v702z" />
    <glyph glyph-name="uogonek" unicode="&#x173;" horiz-adv-x="1548" 
d="M1186 -242q91 0 172 27l10 -160q-97 -31 -233 -31q-138 0 -201.5 44.5t-63.5 132.5q0 155 238 243v107q-76 -73 -195 -114.5t-266 -41.5q-454 0 -454 422v567h262v-501q0 -62 16.5 -109t43 -74.5t64.5 -44t75.5 -22.5t82.5 -6q112 0 202.5 37t147.5 94v626h263v-880h4
l41 -54q-9 -2 -24.5 -7t-20.5 -7v-8h-25q-123 -42 -185.5 -85t-62.5 -95q0 -60 109 -60z" />
    <glyph glyph-name="Wcircumflex" unicode="&#x174;" horiz-adv-x="2531" 
d="M1270 1747l-359 -268l-88 106l375 387h145l375 -387l-88 -106zM2148 1378h301l-518 -1384h-278l-393 1067l-392 -1067h-274l-514 1384h301l352 -1059l367 1059h321l369 -1063z" />
    <glyph glyph-name="wcircumflex" unicode="&#x175;" horiz-adv-x="2080" 
d="M1042 1325l-358 -268l-88 106l375 387h145l375 -387l-88 -106zM1729 956h323l-426 -956h-319l-271 692l-284 -692h-303l-420 956h323l246 -696l274 696h336l271 -696z" />
    <glyph glyph-name="Ycircumflex" unicode="&#x176;" horiz-adv-x="1691" 
d="M846 1747l-359 -268l-88 106l375 387h146l374 -387l-88 -106zM1661 1378l-680 -872v-506h-264v510l-686 868h311l506 -653l500 653h313z" />
    <glyph glyph-name="ycircumflex" unicode="&#x177;" horiz-adv-x="1439" 
d="M721 1325l-359 -268l-88 106l375 387h146l374 -387l-88 -106zM1087 956h324l-756 -1349h-278l198 360l-546 989h323l359 -729z" />
    <glyph glyph-name="Ydieresis" unicode="&#x178;" horiz-adv-x="1691" 
d="M573 1556q-78 0 -119.5 42t-41.5 120q0 74 41.5 113t119.5 39q77 0 121.5 -39.5t44.5 -112.5q0 -77 -44.5 -119.5t-121.5 -42.5zM1116 1556q-77 0 -119.5 42t-42.5 120q0 73 42.5 112.5t119.5 39.5t121.5 -39.5t44.5 -112.5q0 -77 -44.5 -119.5t-121.5 -42.5zM1661 1378
l-680 -872v-506h-264v510l-686 868h311l506 -653l500 653h313z" />
    <glyph glyph-name="Zacute" unicode="&#x179;" horiz-adv-x="1583" 
d="M1188 1790l-451 -311l-88 106l408 387zM537 238h976v-238h-1388v203l954 938h-999v237h1401v-211z" />
    <glyph glyph-name="zacute" unicode="&#x17a;" horiz-adv-x="1249" 
d="M1028 1368l-450 -311l-89 106l408 387zM518 211h668v-211h-1073v203l649 542h-658v211h1061v-208z" />
    <glyph glyph-name="Zdotaccent" unicode="&#x17b;" horiz-adv-x="1583" 
d="M782 1559q-77 0 -118 41.5t-41 119.5q0 73 41 111.5t118 38.5q79 0 123.5 -38.5t44.5 -111.5q0 -77 -44.5 -119t-123.5 -42zM537 238h976v-238h-1388v203l954 938h-999v237h1401v-211z" />
    <glyph glyph-name="zdotaccent" unicode="&#x17c;" horiz-adv-x="1249" 
d="M623 1137q-77 0 -118.5 41.5t-41.5 119.5q0 73 41.5 111.5t118.5 38.5q79 0 123.5 -38.5t44.5 -111.5q0 -77 -44.5 -119t-123.5 -42zM518 211h668v-211h-1073v203l649 542h-658v211h1061v-208z" />
    <glyph glyph-name="Zcaron" unicode="&#x17d;" horiz-adv-x="1583" 
d="M860 1479h-145l-375 389l88 104l358 -268l361 268l88 -104zM537 238h976v-238h-1388v203l954 938h-999v237h1401v-211z" />
    <glyph glyph-name="zcaron" unicode="&#x17e;" horiz-adv-x="1249" 
d="M700 1057h-145l-375 389l88 104l359 -268l360 268l88 -104zM518 211h668v-211h-1073v203l649 542h-658v211h1061v-208z" />
    <glyph glyph-name="uni01CD" unicode="&#x1cd;" horiz-adv-x="1738" 
d="M944 1479h-145l-375 389l88 104l358 -268l361 268l88 -104zM1384 0l-106 238h-819l-105 -238h-293l644 1389h327l645 -1389h-293zM553 451h631l-316 708z" />
    <glyph glyph-name="uni01CE" unicode="&#x1ce;" horiz-adv-x="1415" 
d="M764 1057h-146l-374 389l88 104l358 -268l361 268l88 -104zM696 989q99 0 177 -10.5t151 -39t121.5 -74.5t77 -121t28.5 -175v-569h-237v139q-137 -174 -504 -174q-387 0 -387 301q0 153 95.5 227t297.5 74h471q-14 113 -99.5 157t-240.5 44q-134 0 -225.5 -28.5
t-179.5 -96.5l-99 193q195 153 553 153zM569 164q353 0 420 164v49h-469q-133 0 -133 -98q0 -115 182 -115z" />
    <glyph glyph-name="uni01CF" unicode="&#x1cf;" horiz-adv-x="698" 
d="M424 1479h-145l-375 389l88 104l358 -268l361 268l88 -104zM217 0v1378h264v-1378h-264z" />
    <glyph glyph-name="uni01D0" unicode="&#x1d0;" horiz-adv-x="675" 
d="M412 1057h-146l-375 389l89 104l358 -268l360 268l88 -104zM207 0v956h262v-956h-262z" />
    <glyph glyph-name="uni01D1" unicode="&#x1d1;" horiz-adv-x="1902" 
d="M1024 1479h-145l-375 389l88 104l358 -268l361 268l88 -104zM946 1413q400 0 615 -168.5t215 -515.5v-78q0 -348 -215 -517t-615 -169q-396 0 -607.5 169t-211.5 517v78q0 347 211.5 515.5t607.5 168.5zM1509 649v82q0 117 -41 202.5t-118 136.5t-177 75t-227 24
q-124 0 -222.5 -24t-174 -75t-116 -136.5t-40.5 -202.5v-82q0 -117 40.5 -203t116 -137t174 -75.5t222.5 -24.5q127 0 227 24.5t177 75.5t118 137t41 203z" />
    <glyph glyph-name="uni01D2" unicode="&#x1d2;" horiz-adv-x="1511" 
d="M829 1057h-145l-375 389l88 104l359 -268l360 268l88 -104zM756 989q104 0 193 -14t171 -48.5t139.5 -87.5t92 -136t34.5 -189v-72q0 -107 -34.5 -190.5t-92 -136.5t-139.5 -87.5t-171 -48.5t-193 -14t-193.5 14t-171.5 48.5t-140 87.5t-92 136.5t-34 190.5v72
q0 106 34 189t92 136t140 87.5t171.5 48.5t193.5 14zM1124 455v49q0 62 -22 109.5t-57 76.5t-84.5 47t-99 24.5t-105.5 6.5t-105.5 -6.5t-99 -24.5t-85 -47t-57.5 -76.5t-22 -109.5v-49q0 -63 22 -111t57.5 -77.5t85 -48t99 -25.5t105.5 -7q71 0 131.5 12t116.5 40.5
t88 83.5t32 133z" />
    <glyph glyph-name="uni01D3" unicode="&#x1d3;" horiz-adv-x="1765" 
d="M958 1479h-145l-375 389l88 104l359 -268l360 268l88 -104zM1335 1378h267v-700q0 -713 -713 -713q-725 0 -725 713v700h266v-702q0 -127 32.5 -218.5t94 -145t143.5 -78.5t189 -25q100 0 179 25t140 78.5t94 145.5t33 218v702z" />
    <glyph glyph-name="uni01D4" unicode="&#x1d4;" horiz-adv-x="1548" 
d="M848 1057h-146l-374 389l88 104l358 -268l361 268l88 -104zM1087 954h263v-956h-242v123q-76 -73 -195 -114.5t-266 -41.5q-454 0 -454 422v567h262v-501q0 -62 16.5 -109t43 -74.5t64.5 -44t75.5 -22.5t82.5 -6q112 0 202.5 37t147.5 94v626z" />
    <glyph glyph-name="uni01D5" unicode="&#x1d5;" horiz-adv-x="1765" 
d="M1374 1970h-981v211h981v-211zM612 1493q-78 0 -119.5 42t-41.5 120q0 73 41.5 112t119.5 39t122 -39t44 -112q0 -77 -44.5 -119.5t-121.5 -42.5zM1155 1493q-77 0 -119.5 42t-42.5 120q0 73 42.5 112t119.5 39q78 0 122 -39t44 -112q0 -77 -44.5 -119.5t-121.5 -42.5z
M889 -35q-725 0 -725 713v700h266v-702q0 -127 32.5 -218.5t94 -145t143.5 -78.5t189 -25q100 0 179 25t140 78.5t94 145.5t33 218v702h267v-700q0 -713 -713 -713z" />
    <glyph glyph-name="uni01D6" unicode="&#x1d6;" horiz-adv-x="1548" 
d="M1266 1722v-211h-981v211h981zM342 1233q0 74 41.5 112.5t120.5 38.5q78 0 122 -38.5t44 -112.5q0 -76 -44.5 -119t-121.5 -43q-78 0 -120 42.5t-42 119.5zM885 1233q0 74 42.5 112.5t119.5 38.5q78 0 121.5 -38.5t43.5 -112.5q0 -76 -44 -119t-121 -43t-119.5 42.5
t-42.5 119.5zM1087 954h263v-956h-242v123q-76 -73 -195 -114.5t-266 -41.5q-454 0 -454 422v567h262v-501q0 -62 16.5 -109t43 -74.5t64.5 -44t75.5 -22.5t82.5 -6q112 0 202.5 37t147.5 94v626z" />
    <glyph glyph-name="uni01D7" unicode="&#x1d7;" horiz-adv-x="1765" 
d="M1284 2165l-450 -312l-89 107l408 387zM612 1493q-78 0 -119.5 42t-41.5 120q0 73 41.5 112t119.5 39t122 -39t44 -112q0 -77 -44.5 -119.5t-121.5 -42.5zM1155 1493q-77 0 -119.5 42t-42.5 120q0 73 42.5 112t119.5 39q78 0 122 -39t44 -112q0 -77 -44.5 -119.5
t-121.5 -42.5zM889 -35q-725 0 -725 713v700h266v-702q0 -127 32.5 -218.5t94 -145t143.5 -78.5t189 -25q100 0 179 25t140 78.5t94 145.5t33 218v702h267v-700q0 -713 -713 -713z" />
    <glyph glyph-name="uni01D8" unicode="&#x1d8;" horiz-adv-x="1548" 
d="M1176 1724l-451 -311l-88 107l407 387zM504 1069q-78 0 -120 42.5t-42 119.5q0 74 41.5 112.5t120.5 38.5q78 0 122 -38.5t44 -112.5q0 -76 -44.5 -119t-121.5 -43zM1047 1382q78 0 121.5 -38.5t43.5 -112.5q0 -76 -44 -119t-121 -43t-119.5 42.5t-42.5 119.5
q0 74 42.5 112.5t119.5 38.5zM1087 954h263v-956h-242v123q-76 -73 -195 -114.5t-266 -41.5q-454 0 -454 422v567h262v-501q0 -62 16.5 -109t43 -74.5t64.5 -44t75.5 -22.5t82.5 -6q112 0 202.5 37t147.5 94v626z" />
    <glyph glyph-name="uni01D9" unicode="&#x1d9;" horiz-adv-x="1765" 
d="M956 1835h-145l-375 389l88 105l359 -269l360 269l88 -105zM451 1645q0 73 41.5 112t119.5 39t122 -39t44 -112q0 -77 -44.5 -119.5t-121.5 -42.5q-78 0 -119.5 42t-41.5 120zM993 1645q0 73 42.5 112t119.5 39q78 0 122 -39t44 -112q0 -77 -44.5 -119.5t-121.5 -42.5
t-119.5 42t-42.5 120zM1335 1378h267v-700q0 -713 -713 -713q-725 0 -725 713v700h266v-702q0 -127 32.5 -218.5t94 -145t143.5 -78.5t189 -25q100 0 179 25t140 78.5t94 145.5t33 218v702z" />
    <glyph glyph-name="uni01DA" unicode="&#x1da;" horiz-adv-x="1548" 
d="M848 1403h-146l-374 389l88 104l358 -268l361 268l88 -104zM342 1231q0 74 41.5 112.5t120.5 38.5q78 0 122 -38.5t44 -112.5q0 -76 -44.5 -119t-121.5 -43q-78 0 -120 42.5t-42 119.5zM885 1231q0 74 42.5 112.5t119.5 38.5q78 0 121.5 -38.5t43.5 -112.5
q0 -76 -44 -119t-121 -43t-119.5 42.5t-42.5 119.5zM1087 954h263v-956h-242v123q-76 -73 -195 -114.5t-266 -41.5q-454 0 -454 422v567h262v-501q0 -62 16.5 -109t43 -74.5t64.5 -44t75.5 -22.5t82.5 -6q112 0 202.5 37t147.5 94v626z" />
    <glyph glyph-name="uni01DB" unicode="&#x1db;" horiz-adv-x="1765" 
d="M514 2126l131 182l408 -387l-88 -106zM612 1493q-78 0 -119.5 42t-41.5 120q0 73 41.5 112t119.5 39t122 -39t44 -112q0 -77 -44.5 -119.5t-121.5 -42.5zM1155 1493q-77 0 -119.5 42t-42.5 120q0 73 42.5 112t119.5 39q78 0 122 -39t44 -112q0 -77 -44.5 -119.5
t-121.5 -42.5zM889 -35q-725 0 -725 713v700h266v-702q0 -127 32.5 -218.5t94 -145t143.5 -78.5t189 -25q100 0 179 25t140 78.5t94 145.5t33 218v702h267v-700q0 -713 -713 -713z" />
    <glyph glyph-name="uni01DC" unicode="&#x1dc;" horiz-adv-x="1548" 
d="M942 1534l-88 -107l-451 312l132 182zM504 1071q-78 0 -120 42.5t-42 119.5q0 74 41.5 112.5t120.5 38.5q78 0 122 -38.5t44 -112.5q0 -76 -44.5 -119t-121.5 -43zM885 1233q0 74 42.5 112.5t119.5 38.5q78 0 121.5 -38.5t43.5 -112.5q0 -76 -44 -119t-121 -43
t-119.5 42.5t-42.5 119.5zM1087 954h263v-956h-242v123q-76 -73 -195 -114.5t-266 -41.5q-454 0 -454 422v567h262v-501q0 -62 16.5 -109t43 -74.5t64.5 -44t75.5 -22.5t82.5 -6q112 0 202.5 37t147.5 94v626z" />
    <glyph glyph-name="Scommaaccent" unicode="&#x218;" horiz-adv-x="1757" 
d="M1077 801q294 -21 432 -106t138 -275q0 -119 -53.5 -208t-152 -142t-226.5 -79t-287 -26q-295 0 -486.5 56t-339.5 190l123 217q122 -111 284 -168t406 -57q222 0 344.5 51.5t122.5 144.5q0 77 -62 113t-216 51l-442 37q-517 42 -517 395q0 418 719 418q220 0 406.5 -46
t361.5 -165l-102 -221q-139 102 -305 149.5t-381 47.5q-158 0 -254 -20.5t-137 -58.5t-41 -98q0 -76 70 -114t239 -53zM864 -92q137 0 217 -62t80 -172q0 -159 -138.5 -225.5t-391.5 -32.5l18 138q192 -32 272 3.5t80 133.5q0 56 -38 86q-7 -109 -142 -109
q-64 0 -103.5 27.5t-39.5 81.5q0 60 46 95.5t140 35.5z" />
    <glyph glyph-name="scommaaccent" unicode="&#x219;" horiz-adv-x="1337" 
d="M872 561q180 -8 267.5 -68t87.5 -196q0 -332 -584 -332q-369 0 -551 137l55 191q72 -66 207.5 -101.5t296.5 -35.5q326 0 326 133q0 49 -37.5 73t-114.5 27l-331 12q-204 7 -297 79.5t-93 191.5q0 164 146.5 240.5t406.5 76.5q180 0 314.5 -28.5t238.5 -100.5l-98 -172
q-136 109 -446 109q-135 0 -222.5 -28.5t-87.5 -88.5q0 -52 45 -74.5t129 -27.5zM655 -92q137 0 217 -62t80 -172q0 -159 -138.5 -225.5t-391.5 -32.5l18 138q100 -15 168 -15t109 20.5t58.5 52t17.5 79.5q0 55 -39 86q-7 -109 -142 -109q-64 0 -103.5 27.5t-39.5 81.5
q0 60 46 95.5t140 35.5z" />
    <glyph glyph-name="uni021A" unicode="&#x21a;" horiz-adv-x="1550" 
d="M57 1378h1436v-237h-584v-1141h-266v1141h-586v237zM762 -92q137 0 217 -62t80 -172q0 -159 -139 -225.5t-392 -32.5l19 138q192 -32 272 3.5t80 133.5q0 55 -39 86q-7 -109 -141 -109q-64 0 -104 27.5t-40 81.5q0 60 46.5 95.5t140.5 35.5z" />
    <glyph glyph-name="uni021B" unicode="&#x21b;" horiz-adv-x="1312" 
d="M1262 72q-78 -51 -200 -79t-263 -28q-69 0 -126 6t-113.5 21t-99.5 40t-80.5 64.5t-62 92t-38 125t-13.5 161.5v270h-153v211h153v252h264v-252h656v-211h-656v-249q0 -75 15.5 -132t40.5 -90.5t62 -54t74.5 -28t84.5 -7.5q197 0 367 88zM700 -100q137 0 217 -62t80 -172
q0 -159 -138.5 -225.5t-391.5 -32.5l18 137q192 -32 272.5 4t80.5 134q0 55 -39 86q-7 -109 -142 -109q-64 0 -103.5 27.5t-39.5 81.5q0 60 46 95.5t140 35.5z" />
    <glyph glyph-name="gravecomb" unicode="&#x300;" 
d="M-547 1368l131 182l408 -387l-88 -106z" />
    <glyph glyph-name="acutecomb" unicode="&#x301;" 
d="M-20 1368l-451 -311l-88 106l407 387z" />
    <glyph glyph-name="uni0302" unicode="&#x302;" 
d="M-31 1163l-88 -106l-360 268l-359 -268l-88 106l375 387h145z" />
    <glyph glyph-name="tildecomb" unicode="&#x303;" 
d="M-922 1069q-13 208 57.5 314t192.5 106q27 0 49.5 -5t45 -17.5t35.5 -22t39.5 -31t39.5 -31.5q10 -9 33.5 -32t34 -32t28.5 -18.5t35 -9.5q43 0 64 56t12 147h211q10 -204 -65 -314t-193 -110q-41 0 -79.5 17t-56.5 31.5t-59 51.5q-8 7 -28.5 27t-28 26t-22.5 17
t-27.5 14.5t-26.5 3.5q-46 0 -67 -49t-15 -139h-209z" />
    <glyph glyph-name="uni0304" unicode="&#x304;" 
d="M-80 1202h-981v211h981v-211z" />
    <glyph glyph-name="uni0306" unicode="&#x306;" 
d="M-502 1051q-116 0 -206.5 35t-146 96.5t-84 141.5t-28.5 173h236q0 -103 57.5 -177.5t171.5 -74.5q78 0 130 38.5t72.5 93t20.5 120.5h238q0 -94 -28 -173t-82.5 -141t-144.5 -97t-206 -35z" />
    <glyph glyph-name="uni0307" unicode="&#x307;" 
d="M-217 1137q-77 0 -118.5 41.5t-41.5 119.5q0 73 41.5 111.5t118.5 38.5q79 0 123.5 -38.5t44.5 -111.5q0 -77 -44.5 -119t-123.5 -42z" />
    <glyph glyph-name="uni0308" unicode="&#x308;" 
d="M-758 1133q-78 0 -120 42t-42 119q0 75 42 113.5t120 38.5t122 -39t44 -113q0 -76 -44.5 -118.5t-121.5 -42.5zM-215 1133q-77 0 -119.5 42.5t-42.5 118.5q0 74 42.5 113t119.5 39q78 0 122 -39t44 -113q0 -76 -44.5 -118.5t-121.5 -42.5z" />
    <glyph glyph-name="uni030A" unicode="&#x30a;" 
d="M-457 1075q-212 0 -322 71.5t-110 192.5v15q0 120 110 191t322 71q211 0 318.5 -71t107.5 -191v-15q0 -122 -107.5 -193t-318.5 -71zM-457 1237q236 0 236 104v11q0 102 -236 102q-239 0 -239 -102v-11q0 -104 239 -104z" />
    <glyph glyph-name="uni030B" unicode="&#x30b;" 
d="M-571 1489l-349 -428l-114 69l278 486zM-20 1378l-437 -336l-94 97l383 407z" />
    <glyph glyph-name="uni030C" unicode="&#x30c;" 
d="M-119 1550l88 -104l-375 -389h-145l-375 389l88 104l359 -268z" />
    <glyph glyph-name="uni0312" unicode="&#x312;" 
d="M-41 1438q-192 32 -272 -4t-80 -134q0 -55 39 -86q7 109 141 109q64 0 103.5 -27.5t39.5 -81.5q0 -60 -46 -95.5t-140 -35.5q-137 0 -217 62t-80 172q0 159 138.5 225.5t391.5 32.5z" />
    <glyph glyph-name="uni0326" unicode="&#x326;" 
d="M-330 -92q137 0 217 -62t80 -172q0 -159 -138.5 -225.5t-391.5 -32.5l18 138q192 -32 272 3.5t80 133.5q0 56 -38 86q-7 -109 -142 -109q-64 0 -103.5 27.5t-39.5 81.5q0 60 46 95.5t140 35.5z" />
    <glyph glyph-name="uni0327" unicode="&#x327;" 
d="M-322 -94q152 6 225.5 -34t73.5 -132q0 -172 -292 -172q-85 0 -150 9.5t-84 19.5l27 118q65 -24 176 -24q143 0 143 57q0 32 -58.5 44.5t-197.5 6.5l35 205h125z" />
    <glyph glyph-name="uni0328" unicode="&#x328;" 
d="M-281 -426q-138 0 -201 44t-63 132q0 66 44 120.5t118 90t153.5 57.5t168.5 35l41 -53q-159 -49 -238.5 -96.5t-79.5 -106.5t109 -59q94 0 172 26l10 -159q-97 -31 -234 -31z" />
    <glyph glyph-name="uni0335" unicode="&#x335;" 
d="M-72 469h-1136v211h1136v-211z" />
    <glyph glyph-name="uni0336" unicode="&#x336;" 
d="M-117 477h-1851v211h1851v-211z" />
    <glyph glyph-name="uni0337" unicode="&#x337;" 
d="M-55 752l-996 -547l-100 184l993 547z" />
    <glyph glyph-name="uni0338" unicode="&#x338;" 
 />
    <glyph glyph-name="Wgrave" unicode="&#x1e80;" horiz-adv-x="2531" 
d="M1438 1585l-88 -106l-451 311l131 182zM2148 1378h301l-518 -1384h-278l-393 1067l-392 -1067h-274l-514 1384h301l352 -1059l367 1059h321l369 -1063z" />
    <glyph glyph-name="wgrave" unicode="&#x1e81;" horiz-adv-x="2080" 
d="M1210 1163l-88 -106l-450 311l131 182zM1729 956h323l-426 -956h-319l-271 692l-284 -692h-303l-420 956h323l246 -696l274 696h336l271 -696z" />
    <glyph glyph-name="Wacute" unicode="&#x1e82;" horiz-adv-x="2531" 
d="M1671 1790l-450 -311l-88 106l407 387zM2148 1378h301l-518 -1384h-278l-393 1067l-392 -1067h-274l-514 1384h301l352 -1059l367 1059h321l369 -1063z" />
    <glyph glyph-name="wacute" unicode="&#x1e83;" horiz-adv-x="2080" 
d="M1444 1368l-451 -311l-88 106l408 387zM1729 956h323l-426 -956h-319l-271 692l-284 -692h-303l-420 956h323l246 -696l274 696h336l271 -696z" />
    <glyph glyph-name="Wdieresis" unicode="&#x1e84;" horiz-adv-x="2531" 
d="M997 1556q-78 0 -119.5 42t-41.5 120q0 74 41.5 113t119.5 39q77 0 121.5 -39.5t44.5 -112.5q0 -77 -44.5 -119.5t-121.5 -42.5zM1540 1556q-77 0 -119.5 42t-42.5 120q0 73 42.5 112.5t119.5 39.5t121.5 -39.5t44.5 -112.5q0 -77 -44.5 -119.5t-121.5 -42.5zM2148 1378
h301l-518 -1384h-278l-393 1067l-392 -1067h-274l-514 1384h301l352 -1059l367 1059h321l369 -1063z" />
    <glyph glyph-name="wdieresis" unicode="&#x1e85;" horiz-adv-x="2080" 
d="M770 1133q-78 0 -120 42t-42 119q0 75 42 113.5t120 38.5t122 -39t44 -113q0 -76 -44.5 -118.5t-121.5 -42.5zM1313 1133q-77 0 -119.5 42.5t-42.5 118.5q0 74 42.5 113t119.5 39q78 0 122 -39t44 -113q0 -76 -44.5 -118.5t-121.5 -42.5zM1729 956h323l-426 -956h-319
l-271 692l-284 -692h-303l-420 956h323l246 -696l274 696h336l271 -696z" />
    <glyph glyph-name="Ygrave" unicode="&#x1ef2;" horiz-adv-x="1691" 
d="M1014 1585l-88 -106l-451 311l131 182zM1661 1378l-680 -872v-506h-264v510l-686 868h311l506 -653l500 653h313z" />
    <glyph glyph-name="ygrave" unicode="&#x1ef3;" horiz-adv-x="1439" 
d="M889 1163l-88 -106l-451 311l131 182zM1087 956h324l-756 -1349h-278l198 360l-546 989h323l359 -729z" />
    <glyph glyph-name="endash" unicode="&#x2013;" horiz-adv-x="1517" 
d="M1401 494h-1284v211h1284v-211z" />
    <glyph glyph-name="emdash" unicode="&#x2014;" horiz-adv-x="2015" 
d="M1898 494h-1781v211h1781v-211z" />
    <glyph glyph-name="quoteleft" unicode="&#x2018;" horiz-adv-x="565" 
d="M516 1386q-151 23 -238.5 -27t-87.5 -145q0 -48 27 -86q32 66 127 66q67 0 105 -31.5t38 -95.5q0 -71 -46.5 -109t-133.5 -38q-124 0 -201 72.5t-77 217.5q0 83 30.5 149.5t91 113.5t159 67t225.5 6z" />
    <glyph glyph-name="quoteright" unicode="&#x2019;" horiz-adv-x="565" 
d="M258 1552q123 0 200 -72.5t77 -217.5q0 -83 -30.5 -149.5t-90.5 -113.5t-158 -66.5t-225 -6.5l18 159q151 -23 238.5 27t87.5 145q0 50 -29 86q-29 -65 -127 -65q-66 0 -104.5 31.5t-38.5 95.5q0 71 47 109t135 38z" />
    <glyph glyph-name="quotesinglbase" unicode="&#x201a;" horiz-adv-x="1228" 
d="M264 279q125 0 203 -76t78 -228q0 -185 -146 -286.5t-432 -73.5l19 160q186 -17 291.5 35.5t105.5 160.5q0 47 -27 84q-29 -75 -139 -75q-64 0 -103.5 35t-39.5 104q0 76 49.5 118t140.5 42z" />
    <glyph glyph-name="quotedblleft" unicode="&#x201c;" horiz-adv-x="1093" 
d="M29 1210q0 83 30.5 149.5t91 113.5t159 67t225.5 6l-19 -160q-151 23 -238.5 -27t-87.5 -145q0 -48 27 -86q32 66 127 66q67 0 105 -31.5t38 -95.5q0 -71 -46.5 -109t-133.5 -38q-124 0 -201 72.5t-77 217.5zM1044 1386q-151 23 -238 -27t-87 -145q0 -50 26 -86
q32 66 127 66q67 0 105.5 -31.5t38.5 -95.5q0 -71 -46.5 -109t-133.5 -38q-125 0 -202 72.5t-77 217.5q0 83 30.5 149.5t91 113.5t159 67t225.5 6z" />
    <glyph glyph-name="quotedblright" unicode="&#x201d;" horiz-adv-x="1093" 
d="M258 1552q125 0 202 -72.5t77 -217.5q0 -83 -30.5 -149.5t-91 -113.5t-159 -67t-225.5 -6l18 159q151 -23 238.5 27t87.5 145q0 49 -27 86q-32 -65 -127 -65q-67 0 -105 31.5t-38 95.5q0 71 46.5 109t133.5 38zM786 1552q125 0 202 -72.5t77 -217.5q0 -83 -30.5 -149.5
t-91 -113.5t-159 -67t-225.5 -6l19 159q151 -23 238 27t87 145q0 50 -26 86q-32 -65 -127 -65q-67 0 -105.5 31.5t-38.5 95.5q0 71 46.5 109t133.5 38z" />
    <glyph glyph-name="quotedblbase" unicode="&#x201e;" horiz-adv-x="552" 
d="M264 279q125 0 203 -76t78 -228q0 -185 -146 -286.5t-432 -73.5l19 160q186 -17 291.5 35.5t105.5 160.5q0 47 -27 84q-29 -75 -139 -75q-64 0 -103.5 35t-39.5 104q0 76 49.5 118t140.5 42z" />
    <glyph glyph-name="dagger" unicode="&#x2020;" horiz-adv-x="1228" 
 />
    <glyph glyph-name="daggerdbl" unicode="&#x2021;" horiz-adv-x="1228" 
 />
    <glyph glyph-name="bullet" unicode="&#x2022;" horiz-adv-x="647" 
d="M319 477q-114 0 -175.5 57.5t-61.5 163.5q0 102 61 154.5t176 52.5q116 0 182 -53t66 -154q0 -105 -66.5 -163t-181.5 -58z" />
    <glyph glyph-name="ellipsis" unicode="&#x2026;" horiz-adv-x="1228" 
 />
    <glyph glyph-name="perthousand" unicode="&#x2030;" horiz-adv-x="3500" 
d="M655 745q-106 0 -191.5 15.5t-154.5 49t-107 93t-38 141.5v64q0 82 38 141t107 92.5t154.5 48.5t191.5 15q109 0 196 -15t157.5 -48.5t109.5 -92.5t39 -141v-64q0 -82 -39 -141.5t-109.5 -93t-158 -49t-195.5 -15.5zM184 0l1690 1378h350l-1673 -1378h-367zM655 918
q301 0 301 137v43q0 137 -301 137q-290 0 -290 -137v-43q0 -137 290 -137zM1761 -35q-106 0 -191.5 15.5t-154.5 49t-107 93t-38 141.5v64q0 82 38 141t107 92.5t154.5 48.5t191.5 15q109 0 196 -15t157.5 -48.5t109.5 -92.5t39 -141v-64q0 -82 -39 -141.5t-109.5 -93
t-158 -49t-195.5 -15.5zM2822 -35q-105 0 -190 15.5t-154 49t-107 93t-38 141.5v64q0 82 38 141t107 92.5t154 48.5t190 15q109 0 196 -15t158.5 -48.5t110.5 -92.5t39 -141v-64q0 -66 -26 -117.5t-71.5 -85t-110 -55.5t-137.5 -31.5t-159 -9.5zM1761 137q301 0 301 137v43
q0 138 -301 138q-291 0 -291 -138v-43q0 -137 291 -137zM2822 137q303 0 303 137v43q0 138 -303 138q-289 0 -289 -138v-43q0 -137 289 -137z" />
    <glyph glyph-name="guilsinglleft" unicode="&#x2039;" horiz-adv-x="940" 
d="M856 739l-598 -258l598 -245l-55 -220l-756 371v201l756 373z" />
    <glyph glyph-name="guilsinglright" unicode="&#x203a;" horiz-adv-x="935" 
d="M139 961l756 -373v-201l-756 -371l-55 220l598 245l-598 258z" />
    <glyph glyph-name="fraction" unicode="&#x2044;" horiz-adv-x="1228" 
 />
    <glyph glyph-name="Euro" unicode="&#x20ac;" horiz-adv-x="1769" 
d="M1548 459l156 -189q-130 -167 -319.5 -236t-469.5 -69q-311 0 -501 123t-240 375h-139v186h121v2v78v14h-121v189h141q107 481 764 481q247 0 424.5 -61.5t316.5 -212.5l-155 -209q-97 121 -236 180t-350 59q-385 0 -483 -237h772v-189h-807v-12v-82h807v-186h-778
q92 -254 489 -254q229 0 359 56.5t249 193.5z" />
    <glyph glyph-name="trademark" unicode="&#x2122;" horiz-adv-x="3119" 
d="M104 1141v237h1172v-237h-453v-613h-264v613h-455zM2597 1378h293v-850h-254v527l-365 -437h-198l-355 435v-525h-254v850h293l416 -504z" />
    <glyph glyph-name="minus" unicode="&#x2212;" horiz-adv-x="1404" 
d="M1339 551h-1273v186h1273v-186z" />
    <glyph glyph-name="notequal" unicode="&#x2260;" horiz-adv-x="1228" 
 />
    <glyph glyph-name="lessequal" unicode="&#x2264;" horiz-adv-x="1228" 
 />
    <glyph glyph-name="greaterequal" unicode="&#x2265;" horiz-adv-x="1228" 
 />
    <glyph glyph-name="lozenge" unicode="&#x25ca;" horiz-adv-x="1228" 
 />
    <glyph glyph-name="i.loclTRK" horiz-adv-x="675" 
d="M334 1137q-77 0 -118.5 41.5t-41.5 119.5q0 73 41.5 111.5t118.5 38.5q79 0 123.5 -38.5t44.5 -111.5q0 -77 -44.5 -119t-123.5 -42zM207 0v956h262v-956h-262z" />
    <glyph glyph-name="a.sc" horiz-adv-x="1607" 
d="M1264 0l-84 160h-760l-86 -160h-285l594 1061h328l588 -1061h-295zM520 348h559l-278 526z" />
    <glyph glyph-name="aacute.sc" horiz-adv-x="1607" 
d="M1210 1468l-450 -311l-88 107l407 387zM1264 0l-84 160h-760l-86 -160h-285l594 1061h328l588 -1061h-295zM520 348h559l-278 526z" />
    <glyph glyph-name="abreve.sc" horiz-adv-x="1607" 
d="M811 1151q-116 0 -206.5 35t-146 96.5t-84 141.5t-28.5 173h236q0 -103 57.5 -177t171.5 -74q59 0 103.5 21.5t70 58t37.5 80t12 91.5h238q0 -94 -28 -173t-82.5 -141t-144.5 -97t-206 -35zM1264 0l-84 160h-760l-86 -160h-285l594 1061h328l588 -1061h-295zM520 348h559
l-278 526z" />
    <glyph glyph-name="acircumflex.sc" horiz-adv-x="1607" 
d="M809 1425l-358 -268l-89 107l375 387h146l374 -387l-88 -107zM1264 0l-84 160h-760l-86 -160h-285l594 1061h328l588 -1061h-295zM520 348h559l-278 526z" />
    <glyph glyph-name="adieresis.sc" horiz-adv-x="1607" 
d="M537 1233q-78 0 -120 42.5t-42 119.5q0 74 41.5 112.5t120.5 38.5q78 0 121.5 -38.5t43.5 -112.5q0 -76 -44 -119t-121 -43zM1079 1233q-76 0 -118.5 42.5t-42.5 119.5q0 74 42 112.5t119 38.5q78 0 122 -38.5t44 -112.5q0 -76 -44.5 -119t-121.5 -43zM1264 0l-84 160
h-760l-86 -160h-285l594 1061h328l588 -1061h-295zM520 348h559l-278 526z" />
    <glyph glyph-name="agrave.sc" horiz-adv-x="1607" 
d="M977 1264l-88 -107l-451 311l131 183zM1264 0l-84 160h-760l-86 -160h-285l594 1061h328l588 -1061h-295zM520 348h559l-278 526z" />
    <glyph glyph-name="amacron.sc" horiz-adv-x="1607" 
d="M1298 1513v-210h-981v210h981zM1264 0l-84 160h-760l-86 -160h-285l594 1061h328l588 -1061h-295zM520 348h559l-278 526z" />
    <glyph glyph-name="aogonek.sc" horiz-adv-x="1607" 
d="M1352 -262q94 0 172 26l10 -159q-97 -31 -234 -31q-138 0 -201 44t-63 132q0 160 254 250h-26l-84 160h-760l-86 -160h-285l594 1061h328l581 -1051l9 -10q-159 -49 -238.5 -96.5t-79.5 -106.5t109 -59zM520 348h559l-278 526z" />
    <glyph glyph-name="aring.sc" horiz-adv-x="1607" 
d="M809 1176q-212 0 -322 71.5t-110 192.5v14q0 120 110 191t322 71q211 0 318.5 -71t107.5 -191v-14q0 -122 -107.5 -193t-318.5 -71zM569 1452v-10q0 -49 58.5 -77t181.5 -28q235 0 235 105v10q0 102 -235 102q-240 0 -240 -102zM1264 0l-84 160h-760l-86 -160h-285
l594 1061h328l588 -1061h-295zM520 348h559l-278 526z" />
    <glyph glyph-name="atilde.sc" horiz-adv-x="1607" 
d="M356 1169q-13 208 57.5 314t192.5 106q27 0 49.5 -5t45 -17.5t35.5 -21.5t40 -31t39 -31q10 -9 33.5 -32t34 -32t28.5 -18.5t35 -9.5q43 0 64 55.5t12 146.5h211q10 -204 -65 -314t-193 -110q-41 0 -80 17.5t-56 31.5t-59 52q-8 7 -28.5 27t-28 26t-22.5 17t-27.5 14.5
t-26.5 3.5q-45 0 -66.5 -49.5t-15.5 -139.5h-209zM1264 0l-84 160h-760l-86 -160h-285l594 1061h328l588 -1061h-295zM520 348h559l-278 526z" />
    <glyph glyph-name="ae.sc" horiz-adv-x="2535" 
d="M1438 215h897v-215h-1153l-13 258h-653l-194 -258h-306l818 1051h1493v-207h-920l10 -223h758v-160h-750zM633 414h530l-18 424h-193z" />
    <glyph glyph-name="b.sc" horiz-adv-x="1748" 
d="M1380 565q115 -19 178.5 -86t63.5 -170q0 -309 -483 -309h-906v1051h957q358 0 358 -244q0 -88 -46 -150.5t-122 -91.5zM1282 741q0 90 -143 90h-645v-204h616q75 0 123.5 29t48.5 85zM1165 227q99 0 145 34.5t46 88.5q0 51 -45.5 80t-112.5 29h-704v-232h671z" />
    <glyph glyph-name="c.sc" horiz-adv-x="1740" 
d="M1606 180q-127 -114 -308 -163.5t-456 -49.5q-135 0 -242.5 16.5t-198.5 54.5t-151 99t-93.5 153t-33.5 212v55q0 279 194.5 403.5t573.5 124.5q491 0 723 -190l-125 -207q-176 164 -598 164q-91 0 -164.5 -9t-137.5 -30t-107.5 -55t-68 -86.5t-24.5 -120.5v-41
q0 -85 37 -146t107 -95.5t159.5 -50t206.5 -15.5q402 0 598 190z" />
    <glyph glyph-name="cacute.sc" horiz-adv-x="1740" 
d="M1251 1468l-450 -311l-88 107l407 387zM1606 180q-127 -114 -308 -163.5t-456 -49.5q-135 0 -242.5 16.5t-198.5 54.5t-151 99t-93.5 153t-33.5 212v55q0 279 194.5 403.5t573.5 124.5q491 0 723 -190l-125 -207q-176 164 -598 164q-91 0 -164.5 -9t-137.5 -30
t-107.5 -55t-68 -86.5t-24.5 -120.5v-41q0 -85 37 -146t107 -95.5t159.5 -50t206.5 -15.5q402 0 598 190z" />
    <glyph glyph-name="ccaron.sc" horiz-adv-x="1740" 
d="M924 1157h-146l-375 389l89 105l358 -269l360 269l88 -105zM899 203q402 0 598 190l109 -213q-127 -114 -308 -163.5t-456 -49.5q-135 0 -242.5 16.5t-198.5 54.5t-151 99t-93.5 153t-33.5 212v55q0 279 194.5 403.5t573.5 124.5q491 0 723 -190l-125 -207
q-176 164 -598 164q-91 0 -164.5 -9t-137.5 -30t-107.5 -55t-68 -86.5t-24.5 -120.5v-41q0 -85 37 -146t107 -95.5t159.5 -50t206.5 -15.5z" />
    <glyph glyph-name="ccedilla.sc" horiz-adv-x="1740" 
d="M1606 180q-123 -111 -296.5 -160.5t-435.5 -52.5l-14 -61q152 6 225.5 -34t73.5 -132q0 -172 -293 -172q-85 0 -149.5 9.5t-83.5 19.5l26 118q65 -24 177 -24q143 0 143 57q0 32 -58.5 44.5t-197.5 6.5l29 170q-149 6 -261.5 37t-196.5 92.5t-127.5 163t-43.5 240.5v55
q0 279 194.5 403.5t573.5 124.5q491 0 723 -190l-125 -207q-176 164 -598 164q-91 0 -164.5 -9t-137.5 -30t-107.5 -55t-68 -86.5t-24.5 -120.5v-41q0 -85 37 -146t107 -95.5t159.5 -50t206.5 -15.5q402 0 598 190z" />
    <glyph glyph-name="cdotaccent.sc" horiz-adv-x="1740" 
d="M846 1237q-77 0 -118.5 42t-41.5 120q0 73 41.5 111t118.5 38q79 0 123.5 -38.5t44.5 -110.5q0 -77 -44.5 -119.5t-123.5 -42.5zM1606 180q-127 -114 -308 -163.5t-456 -49.5q-135 0 -242.5 16.5t-198.5 54.5t-151 99t-93.5 153t-33.5 212v55q0 279 194.5 403.5
t573.5 124.5q491 0 723 -190l-125 -207q-176 164 -598 164q-91 0 -164.5 -9t-137.5 -30t-107.5 -55t-68 -86.5t-24.5 -120.5v-41q0 -85 37 -146t107 -95.5t159.5 -50t206.5 -15.5q402 0 598 190z" />
    <glyph glyph-name="d.sc" horiz-adv-x="1779" 
d="M1018 1051q317 0 477 -124t160 -364v-47q0 -516 -637 -516h-785v1051h785zM1389 518v41q0 150 -101.5 210t-316.5 60h-471v-598h471q216 0 317 63t101 224z" />
    <glyph glyph-name="eth.sc" horiz-adv-x="1779" 
d="M1018 1051q317 0 477 -124t160 -364v-47q0 -516 -637 -516h-785v473h-139v135h139v443h785zM1389 518v41q0 150 -101.5 210t-316.5 60h-471v-221h454v-135h-454v-242h471q216 0 317 63t101 224z" />
    <glyph glyph-name="dcaron.sc" horiz-adv-x="1779" 
d="M987 1157h-145l-375 389l88 105l358 -269l361 269l88 -105zM1018 1051q317 0 477 -124t160 -364v-47q0 -516 -637 -516h-785v1051h785zM1389 518v41q0 150 -101.5 210t-316.5 60h-471v-598h471q216 0 317 63t101 224z" />
    <glyph glyph-name="dcroat.sc" horiz-adv-x="1779" 
d="M1018 1051q317 0 477 -124t160 -364v-47q0 -516 -637 -516h-785v473h-139v135h139v443h785zM1389 518v41q0 150 -101.5 210t-316.5 60h-471v-221h454v-135h-454v-242h471q216 0 317 63t101 224z" />
    <glyph glyph-name="e.sc" horiz-adv-x="1699" 
d="M500 215h999v-215h-1266v1051h1256v-207h-989v-228h780v-151h-780v-250z" />
    <glyph glyph-name="eacute.sc" horiz-adv-x="1699" 
d="M1290 1462l-450 -311l-88 106l407 388zM500 215h999v-215h-1266v1051h1256v-207h-989v-228h780v-151h-780v-250z" />
    <glyph glyph-name="ecaron.sc" horiz-adv-x="1699" 
d="M963 1151h-146l-375 389l88 105l359 -269l360 269l88 -105zM500 215h999v-215h-1266v1051h1256v-207h-989v-228h780v-151h-780v-250z" />
    <glyph glyph-name="ecircumflex.sc" horiz-adv-x="1699" 
d="M889 1419l-359 -268l-88 106l375 388h146l374 -388l-88 -106zM500 215h999v-215h-1266v1051h1256v-207h-989v-228h780v-151h-780v-250z" />
    <glyph glyph-name="edieresis.sc" horiz-adv-x="1699" 
d="M616 1227q-78 0 -119.5 42.5t-41.5 119.5q0 75 41.5 113t119.5 38t122 -38.5t44 -112.5q0 -76 -44.5 -119t-121.5 -43zM1159 1227q-77 0 -119.5 42.5t-42.5 119.5q0 74 42.5 112.5t119.5 38.5q78 0 122 -38.5t44 -112.5q0 -76 -44.5 -119t-121.5 -43zM500 215h999v-215
h-1266v1051h1256v-207h-989v-228h780v-151h-780v-250z" />
    <glyph glyph-name="edotaccent.sc" horiz-adv-x="1699" 
d="M885 1231q-77 0 -118.5 42t-41.5 120q0 73 41.5 111t118.5 38q79 0 123.5 -38.5t44.5 -110.5q0 -77 -44.5 -119.5t-123.5 -42.5zM500 215h999v-215h-1266v1051h1256v-207h-989v-228h780v-151h-780v-250z" />
    <glyph glyph-name="egrave.sc" horiz-adv-x="1699" 
d="M1057 1257l-88 -106l-451 311l131 183zM500 215h999v-215h-1266v1051h1256v-207h-989v-228h780v-151h-780v-250z" />
    <glyph glyph-name="emacron.sc" horiz-adv-x="1699" 
d="M1378 1507v-211h-981v211h981zM500 215h999v-215h-1266v1051h1256v-207h-989v-228h780v-151h-780v-250z" />
    <glyph glyph-name="eogonek.sc" horiz-adv-x="1699" 
d="M1292 -262q94 0 172 26l11 -159q-97 -31 -234 -31q-138 0 -201 44t-63 132q0 160 254 250h-998v1051h1256v-207h-989v-228h780v-151h-780v-250h999v-213l2 -2q-159 -49 -238 -96.5t-79 -106.5t108 -59z" />
    <glyph glyph-name="f.sc" horiz-adv-x="1556" 
d="M1397 829h-916v-260h705v-198h-705v-371h-264v1051h1180v-222z" />
    <glyph glyph-name="g.sc" horiz-adv-x="1769" 
d="M756 629h841v-518q-122 -68 -312 -106t-429 -38q-181 0 -313.5 28.5t-228 90.5t-143.5 166t-48 250v55q0 144 50 246.5t150.5 163.5t237 88.5t322.5 27.5q207 0 374 -33t318 -118l-115 -225q-198 147 -575 147q-94 0 -167.5 -9t-136.5 -30t-104.5 -55.5t-64.5 -86.5
t-23 -122v-41q0 -168 126 -238.5t376 -70.5q283 0 446 67v154h-581v207z" />
    <glyph glyph-name="gbreve.sc" horiz-adv-x="1769" 
d="M909 1151q-116 0 -206.5 35t-146 96.5t-84 141.5t-28.5 173h236q0 -103 57.5 -177t171.5 -74q78 0 130 38t73 92.5t21 120.5h237q0 -94 -28 -173t-82.5 -141t-144.5 -97t-206 -35zM756 629h841v-518q-122 -68 -312 -106t-429 -38q-181 0 -313.5 28.5t-228 90.5
t-143.5 166t-48 250v55q0 144 50 246.5t150.5 163.5t237 88.5t322.5 27.5q207 0 374 -33t318 -118l-115 -225q-198 147 -575 147q-94 0 -167.5 -9t-136.5 -30t-104.5 -55.5t-64.5 -86.5t-23 -122v-41q0 -168 126 -238.5t376 -70.5q283 0 446 67v154h-581v207z" />
    <glyph glyph-name="gcommaaccent.sc" horiz-adv-x="1769" 
d="M756 629h841v-518q-122 -68 -312 -106t-429 -38q-181 0 -313.5 28.5t-228 90.5t-143.5 166t-48 250v55q0 144 50 246.5t150.5 163.5t237 88.5t322.5 27.5q207 0 374 -33t318 -118l-115 -225q-198 147 -575 147q-94 0 -167.5 -9t-136.5 -30t-104.5 -55.5t-64.5 -86.5
t-23 -122v-41q0 -168 126 -238.5t376 -70.5q283 0 446 67v154h-581v207zM885 -92q137 0 217 -62t80 -172q0 -159 -139 -225.5t-392 -32.5l19 138q192 -32 272 3.5t80 133.5q0 55 -39 86q-7 -109 -141 -109q-64 0 -104 27.5t-40 81.5q0 60 46.5 95.5t140.5 35.5z" />
    <glyph glyph-name="gdotaccent.sc" horiz-adv-x="1769" 
d="M903 1237q-77 0 -118.5 42t-41.5 120q0 73 41.5 111t118.5 38q79 0 123.5 -38.5t44.5 -110.5q0 -77 -44.5 -119.5t-123.5 -42.5zM756 629h841v-518q-122 -68 -312 -106t-429 -38q-181 0 -313.5 28.5t-228 90.5t-143.5 166t-48 250v55q0 144 50 246.5t150.5 163.5
t237 88.5t322.5 27.5q207 0 374 -33t318 -118l-115 -225q-198 147 -575 147q-94 0 -167.5 -9t-136.5 -30t-104.5 -55.5t-64.5 -86.5t-23 -122v-41q0 -168 126 -238.5t376 -70.5q283 0 446 67v154h-581v207z" />
    <glyph glyph-name="h.sc" horiz-adv-x="1832" 
d="M1333 1049h266v-1049h-266v424h-833v-424h-267v1049h267v-416h833v416z" />
    <glyph glyph-name="hbar.sc" horiz-adv-x="1968" 
d="M1819 881v-168h-123v-713h-266v330h-893v-330h-265v713h-125v168h125v170h265v-170h893v170h266v-170h123zM1430 520v193h-893v-193h893z" />
    <glyph glyph-name="i.sc" horiz-adv-x="733" 
d="M233 0v1051h267v-1051h-267z" />
    <glyph glyph-name="iacute.sc" horiz-adv-x="733" 
d="M768 1468l-451 -311l-88 107l408 387zM233 0v1051h267v-1051h-267z" />
    <glyph glyph-name="icircumflex.sc" horiz-adv-x="733" 
d="M440 1651l375 -387l-88 -107l-360 268l-359 -268l-88 107l375 387h145zM233 0v1051h267v-1051h-267z" />
    <glyph glyph-name="idieresis.sc" horiz-adv-x="733" 
d="M94 1233q-78 0 -120 42.5t-42 119.5q0 74 41.5 112.5t120.5 38.5q78 0 122 -38.5t44 -112.5q0 -76 -44.5 -119t-121.5 -43zM637 1233q-77 0 -119.5 42.5t-42.5 119.5q0 74 42.5 112.5t119.5 38.5q78 0 122 -38.5t44 -112.5q0 -76 -44.5 -119t-121.5 -43zM233 0v1051h267
v-1051h-267z" />
    <glyph glyph-name="i.sc.loclTRK" horiz-adv-x="733" 
d="M362 1237q-77 0 -118 42t-41 120q0 73 41 111t118 38q79 0 123.5 -38.5t44.5 -110.5q0 -77 -44.5 -119.5t-123.5 -42.5zM233 0v1051h267v-1051h-267z" />
    <glyph glyph-name="igrave.sc" horiz-adv-x="733" 
d="M-4 1468l131 183l408 -387l-89 -107zM233 0v1051h267v-1051h-267z" />
    <glyph glyph-name="imacron.sc" horiz-adv-x="733" 
d="M856 1303h-981v210h981v-210zM233 0v1051h267v-1051h-267z" />
    <glyph glyph-name="iogonek.sc" horiz-adv-x="733" 
d="M375 -260q91 0 172 27l10 -160q-97 -31 -233 -31q-138 0 -201.5 44t-63.5 132q0 159 248 248h-74v1051h267v-1002l43 6l41 -53q-159 -49 -238.5 -96.5t-79.5 -106.5t109 -59z" />
    <glyph glyph-name="j.sc" horiz-adv-x="1460" 
d="M74 152l125 198q79 -82 181 -121t251 -39q89 0 156.5 19t120.5 61t80.5 117.5t27.5 181.5v482h266v-451q0 -177 -40.5 -299t-124.5 -195.5t-202 -106t-284 -32.5q-182 0 -316.5 42t-240.5 143z" />
    <glyph glyph-name="k.sc" horiz-adv-x="1783" 
d="M1311 0l-449 504l-362 -244v-260h-267v1051h267v-519l792 519h375l-590 -402l592 -649h-358z" />
    <glyph glyph-name="kcommaaccent.sc" horiz-adv-x="1783" 
d="M1077 649l592 -649h-358l-449 504l-362 -244v-260h-267v1051h267v-519l792 519h375zM848 -92q137 0 217 -62t80 -172q0 -159 -139 -225.5t-392 -32.5l19 138q192 -32 272 3.5t80 133.5q0 55 -39 86q-7 -109 -141 -109q-64 0 -103.5 27.5t-39.5 81.5q0 60 46 95.5
t140 35.5z" />
    <glyph glyph-name="l.sc" horiz-adv-x="1447" 
d="M500 231h860v-231h-1127v1051h267v-820z" />
    <glyph glyph-name="lacute.sc" horiz-adv-x="1447" 
d="M768 1468l-451 -311l-88 107l408 387zM500 231h860v-231h-1127v1051h267v-820z" />
    <glyph glyph-name="lcaron.sc" horiz-adv-x="1447" 
d="M440 1157h-145l-375 389l88 105l359 -269l360 269l88 -105zM500 231h860v-231h-1127v1051h267v-820z" />
    <glyph glyph-name="lcommaaccent.sc" horiz-adv-x="1447" 
d="M500 231h860v-231h-1127v1051h267v-820zM797 -92q137 0 217 -62t80 -172q0 -159 -139 -225.5t-392 -32.5l19 138q192 -32 272 3.5t80 133.5q0 55 -39 86q-7 -109 -141 -109q-64 0 -104 27.5t-40 81.5q0 60 46.5 95.5t140.5 35.5z" />
    <glyph glyph-name="lslash.sc" horiz-adv-x="1447" 
d="M500 231h860v-231h-1127v383l-221 -121l-100 184l321 177v428h267v-281l405 223l103 -184l-508 -279v-299z" />
    <glyph glyph-name="m.sc" horiz-adv-x="2134" 
d="M1618 1051h280v-1051h-258v672l-479 -606h-198l-469 602v-668h-261v1051h281l553 -711z" />
    <glyph glyph-name="n.sc" horiz-adv-x="1861" 
d="M1368 1051h258v-1051h-264l-868 733v-733h-261v1051h267l868 -727v727z" />
    <glyph glyph-name="nacute.sc" horiz-adv-x="1861" 
d="M1329 1468l-450 -311l-88 107l407 387zM1368 1051h258v-1051h-264l-868 733v-733h-261v1051h267l868 -727v727z" />
    <glyph glyph-name="ncaron.sc" horiz-adv-x="1861" 
d="M1001 1157h-145l-375 389l88 105l359 -269l360 269l88 -105zM1368 1051h258v-1051h-264l-868 733v-733h-261v1051h267l868 -727v727z" />
    <glyph glyph-name="ncommaaccent.sc" horiz-adv-x="1861" 
d="M1368 1051h258v-1051h-264l-868 733v-733h-261v1051h267l868 -727v727zM913 -92q137 0 217 -62t80 -172q0 -159 -138.5 -225.5t-391.5 -32.5l18 138q100 -15 168 -15t109 20.5t58.5 52t17.5 79.5q0 55 -39 86q-7 -109 -142 -109q-64 0 -103.5 27.5t-39.5 81.5
q0 60 46 95.5t140 35.5z" />
    <glyph glyph-name="eng.sc" horiz-adv-x="1916" 
d="M1399 1051h260v-865q0 -146 -38.5 -250t-113 -164t-172.5 -87t-229 -27q-268 0 -461 109l92 202q95 -55 165.5 -77.5t172.5 -22.5q250 0 307 149l-864 701v-719h-260v1051h264l879 -715z" />
    <glyph glyph-name="ntilde.sc" horiz-adv-x="1861" 
d="M475 1169q-13 208 58 314t192 106q27 0 49.5 -5t45 -17.5t35.5 -21.5t40 -31t39 -31q10 -9 33.5 -32t34 -32t28.5 -18.5t35 -9.5q43 0 64 55.5t12 146.5h211q10 -204 -65 -314t-193 -110q-41 0 -80 17.5t-56 31.5t-59 52q-8 7 -28.5 27t-28 26t-22.5 17t-27.5 14.5
t-26.5 3.5q-46 0 -67 -49.5t-15 -139.5h-209zM1368 1051h258v-1051h-264l-868 733v-733h-261v1051h267l868 -727v727z" />
    <glyph glyph-name="o.sc" horiz-adv-x="1796" 
d="M893 -29q-770 0 -770 531v55q0 528 770 528q780 0 780 -528v-55q0 -531 -780 -531zM893 201q251 0 382.5 71t131.5 232v51q0 160 -131 229.5t-383 69.5q-246 0 -375 -69.5t-129 -229.5v-51q0 -161 129.5 -232t374.5 -71z" />
    <glyph glyph-name="oacute.sc" horiz-adv-x="1796" 
d="M1300 1468l-450 -311l-88 107l407 387zM893 -29q-770 0 -770 531v55q0 528 770 528q780 0 780 -528v-55q0 -531 -780 -531zM893 201q251 0 382.5 71t131.5 232v51q0 160 -131 229.5t-383 69.5q-246 0 -375 -69.5t-129 -229.5v-51q0 -161 129.5 -232t374.5 -71z" />
    <glyph glyph-name="ocircumflex.sc" horiz-adv-x="1796" 
d="M899 1425l-358 -268l-88 107l374 387h146l375 -387l-88 -107zM893 1085q780 0 780 -528v-55q0 -531 -780 -531q-770 0 -770 531v55q0 528 770 528zM1407 504v51q0 160 -131 229.5t-383 69.5q-246 0 -375 -69.5t-129 -229.5v-51q0 -161 129.5 -232t374.5 -71
q251 0 382.5 71t131.5 232z" />
    <glyph glyph-name="odieresis.sc" horiz-adv-x="1796" 
d="M627 1233q-78 0 -120 42.5t-42 119.5q0 74 41.5 112.5t120.5 38.5q78 0 122 -38.5t44 -112.5q0 -76 -44.5 -119t-121.5 -43zM1169 1233q-76 0 -118.5 42.5t-42.5 119.5q0 74 42 112.5t119 38.5q78 0 122 -38.5t44 -112.5q0 -76 -44.5 -119t-121.5 -43zM893 -29
q-770 0 -770 531v55q0 528 770 528q780 0 780 -528v-55q0 -531 -780 -531zM893 201q251 0 382.5 71t131.5 232v51q0 160 -131 229.5t-383 69.5q-246 0 -375 -69.5t-129 -229.5v-51q0 -161 129.5 -232t374.5 -71z" />
    <glyph glyph-name="ograve.sc" horiz-adv-x="1796" 
d="M528 1468l131 183l408 -387l-88 -107zM893 -29q-770 0 -770 531v55q0 528 770 528q780 0 780 -528v-55q0 -531 -780 -531zM893 201q251 0 382.5 71t131.5 232v51q0 160 -131 229.5t-383 69.5q-246 0 -375 -69.5t-129 -229.5v-51q0 -161 129.5 -232t374.5 -71z" />
    <glyph glyph-name="ohungarumlaut.sc" horiz-adv-x="1796" 
d="M997 1589l-348 -428l-114 70l278 485zM1548 1479l-436 -336l-94 96l383 408zM893 -29q-770 0 -770 531v55q0 528 770 528q780 0 780 -528v-55q0 -531 -780 -531zM893 201q251 0 382.5 71t131.5 232v51q0 160 -131 229.5t-383 69.5q-246 0 -375 -69.5t-129 -229.5v-51
q0 -161 129.5 -232t374.5 -71z" />
    <glyph glyph-name="omacron.sc" horiz-adv-x="1796" 
d="M1389 1303h-981v210h981v-210zM893 -29q-770 0 -770 531v55q0 528 770 528q780 0 780 -528v-55q0 -531 -780 -531zM893 201q251 0 382.5 71t131.5 232v51q0 160 -131 229.5t-383 69.5q-246 0 -375 -69.5t-129 -229.5v-51q0 -161 129.5 -232t374.5 -71z" />
    <glyph glyph-name="oslash.sc" horiz-adv-x="1796" 
d="M1704 963l-131 -95q100 -124 100 -311v-55q0 -531 -780 -531q-280 0 -457 70l-178 -129l-162 164l137 100q-110 122 -110 326v55q0 528 770 528q296 0 485 -77l164 118zM389 504q0 -105 57 -174l693 504q-100 20 -246 20q-246 0 -375 -69.5t-129 -229.5v-51zM1407 555
q0 96 -47 158l-682 -496q101 -16 215 -16q251 0 382.5 71t131.5 232v51z" />
    <glyph glyph-name="otilde.sc" horiz-adv-x="1796" 
d="M446 1169q-13 208 57.5 314t192.5 106q27 0 49.5 -5t45 -17.5t35.5 -21.5t40 -31t39 -31q10 -9 33.5 -32t34 -32t28.5 -18.5t35 -9.5q43 0 64 55.5t12 146.5h211q10 -204 -65 -314t-193 -110q-41 0 -80 17.5t-56 31.5t-59 52q-8 7 -28.5 27t-28 26t-22.5 17t-27.5 14.5
t-26.5 3.5q-45 0 -66.5 -49.5t-15.5 -139.5h-209zM893 -29q-770 0 -770 531v55q0 528 770 528q780 0 780 -528v-55q0 -531 -780 -531zM893 201q251 0 382.5 71t131.5 232v51q0 160 -131 229.5t-383 69.5q-246 0 -375 -69.5t-129 -229.5v-51q0 -161 129.5 -232t374.5 -71z
" />
    <glyph glyph-name="oe.sc" horiz-adv-x="2973" 
d="M1761 215h1012v-215h-1276v129q-170 -164 -575 -164q-191 0 -336 30t-250 93.5t-159 167t-54 244.5v57q0 139 54.5 240.5t160.5 163.5t253.5 91t342.5 29q395 0 563 -149v117h1266v-207h-1002v-226h793v-151h-793v-250zM942 201q444 0 555 209v223q-111 217 -555 217
q-101 0 -182 -9t-151.5 -30t-118 -55t-74.5 -86.5t-27 -120.5v-45q0 -303 553 -303z" />
    <glyph glyph-name="p.sc" horiz-adv-x="1648" 
d="M1079 1051q112 0 193 -17t144.5 -58t95.5 -114t32 -180q0 -213 -120.5 -308t-344.5 -95h-585v-279h-261v1051h846zM1053 485q105 0 166 47.5t61 141.5q0 91 -58 125.5t-169 34.5h-559v-349h559z" />
    <glyph glyph-name="thorn.sc" horiz-adv-x="1691" 
d="M1077 911q475 0 475 -358q0 -183 -120 -278t-355 -95h-602v-180h-258v1051h258v-140h602zM1044 389q115 0 179.5 41.5t64.5 122.5q0 80 -61.5 111.5t-182.5 31.5h-569v-307h569z" />
    <glyph glyph-name="q.sc" horiz-adv-x="1796" 
d="M893 1085q780 0 780 -528v-55q0 -398 -438 -498l291 -117l-113 -182l-569 266q-721 18 -721 531v55q0 528 770 528zM1407 504v51q0 160 -131 229.5t-383 69.5q-246 0 -375 -69.5t-129 -229.5v-51q0 -161 129.5 -232t374.5 -71q251 0 382.5 71t131.5 232z" />
    <glyph glyph-name="r.sc" horiz-adv-x="1742" 
d="M1282 0l-330 326h-458v-326h-261v1051h846q118 0 204 -17.5t150.5 -57t97 -108t32.5 -166.5q0 -285 -303 -354l360 -348h-338zM494 831v-309h571q108 0 169.5 42t61.5 126q0 81 -58 111t-173 30h-571z" />
    <glyph glyph-name="racute.sc" horiz-adv-x="1742" 
d="M1262 1468l-451 -311l-88 107l407 387zM1282 0l-330 326h-458v-326h-261v1051h846q118 0 204 -17.5t150.5 -57t97 -108t32.5 -166.5q0 -285 -303 -354l360 -348h-338zM494 831v-309h571q108 0 169.5 42t61.5 126q0 81 -58 111t-173 30h-571z" />
    <glyph glyph-name="rcaron.sc" horiz-adv-x="1742" 
d="M934 1157h-146l-374 389l88 105l358 -269l361 269l88 -105zM1282 0l-330 326h-458v-326h-261v1051h846q118 0 204 -17.5t150.5 -57t97 -108t32.5 -166.5q0 -285 -303 -354l360 -348h-338zM494 831v-309h571q108 0 169.5 42t61.5 126q0 81 -58 111t-173 30h-571z" />
    <glyph glyph-name="rcommaaccent.sc" horiz-adv-x="1742" 
d="M1260 348l360 -348h-338l-330 326h-458v-326h-261v1051h846q118 0 204 -17.5t150.5 -57t97 -108t32.5 -166.5q0 -285 -303 -354zM494 831v-309h571q108 0 169.5 42t61.5 126q0 81 -58 111t-173 30h-571zM846 -92q137 0 217 -62t80 -172q0 -159 -139 -225.5t-392 -32.5
l19 138q192 -32 272 3.5t80 133.5q0 55 -39 86q-7 -109 -141 -109q-64 0 -104 27.5t-40 81.5q0 60 46.5 95.5t140.5 35.5z" />
    <glyph glyph-name="s.sc" horiz-adv-x="1669" 
d="M840 -35q-240 0 -414 35.5t-317 118.5l75 200q122 -74 264 -110.5t377 -36.5q217 0 335 40t118 112q0 50 -47 74.5t-146 29.5l-493 23q-438 20 -438 301q0 92 45.5 157t137.5 102.5t216 54.5t295 17q179 0 338 -28t321 -99l-84 -194q-126 66 -256.5 94.5t-339.5 28.5
q-236 0 -334 -32t-98 -97q0 -108 201 -117l510 -18q74 -3 132.5 -11t115.5 -28t94.5 -51t60.5 -81t23 -116q0 -96 -48.5 -167t-140.5 -115t-217.5 -65.5t-285.5 -21.5z" />
    <glyph glyph-name="sacute.sc" horiz-adv-x="1669" 
d="M1264 1468l-451 -311l-88 107l408 387zM840 -35q-240 0 -414 35.5t-317 118.5l75 200q122 -74 264 -110.5t377 -36.5q217 0 335 40t118 112q0 50 -47 74.5t-146 29.5l-493 23q-438 20 -438 301q0 92 45.5 157t137.5 102.5t216 54.5t295 17q179 0 338 -28t321 -99
l-84 -194q-126 66 -256.5 94.5t-339.5 28.5q-236 0 -334 -32t-98 -97q0 -108 201 -117l510 -18q74 -3 132.5 -11t115.5 -28t94.5 -51t60.5 -81t23 -116q0 -96 -48.5 -167t-140.5 -115t-217.5 -65.5t-285.5 -21.5z" />
    <glyph glyph-name="scaron.sc" horiz-adv-x="1669" 
d="M936 1157h-145l-375 389l88 105l358 -269l361 269l88 -105zM1106 621q74 -3 132.5 -11t115.5 -28t94.5 -51t60.5 -81t23 -116q0 -96 -48.5 -167t-140.5 -115t-217.5 -65.5t-285.5 -21.5q-240 0 -414 35.5t-317 118.5l75 200q122 -74 264 -110.5t377 -36.5q217 0 335 40
t118 112q0 50 -47 74.5t-146 29.5l-493 23q-438 20 -438 301q0 92 45.5 157t137.5 102.5t216 54.5t295 17q179 0 338 -28t321 -99l-84 -194q-126 66 -256.5 94.5t-339.5 28.5q-236 0 -334 -32t-98 -97q0 -108 201 -117z" />
    <glyph glyph-name="scedilla.sc" horiz-adv-x="1669" 
d="M1532 334q0 -180 -166.5 -270.5t-466.5 -98.5l-14 -59q152 6 225.5 -34t73.5 -132q0 -172 -293 -172q-85 0 -150 9.5t-84 19.5l27 118q65 -24 176 -24q144 0 144 57q0 32 -58.5 44.5t-197.5 6.5l28 166q-214 5 -374 41t-293 113l75 200q122 -74 264 -110.5t377 -36.5
q217 0 335 40t118 112q0 50 -47 74.5t-146 29.5l-493 23q-438 20 -438 301q0 92 45.5 157t137.5 102.5t216 54.5t295 17q179 0 338 -28t321 -99l-84 -194q-126 66 -256.5 94.5t-339.5 28.5q-236 0 -334 -32t-98 -97q0 -108 201 -117l510 -18q74 -3 132.5 -11t115.5 -28
t94.5 -51t60.5 -81t23 -116z" />
    <glyph glyph-name="scommaaccent.sc" horiz-adv-x="1669" 
d="M1106 621q74 -3 132.5 -11t115.5 -28t94.5 -51t60.5 -81t23 -116q0 -96 -48.5 -167t-140.5 -115t-217.5 -65.5t-285.5 -21.5q-240 0 -414 35.5t-317 118.5l75 200q122 -74 264 -110.5t377 -36.5q217 0 335 40t118 112q0 50 -47 74.5t-146 29.5l-493 23q-438 20 -438 301
q0 92 45.5 157t137.5 102.5t216 54.5t295 17q179 0 338 -28t321 -99l-84 -194q-126 66 -256.5 94.5t-339.5 28.5q-236 0 -334 -32t-98 -97q0 -108 201 -117zM848 -92q137 0 217 -62t80 -172q0 -159 -139 -225.5t-392 -32.5l19 138q192 -32 272 3.5t80 133.5q0 55 -39 86
q-7 -109 -141 -109q-64 0 -103.5 27.5t-39.5 81.5q0 60 46 95.5t140 35.5z" />
    <glyph glyph-name="t.sc" horiz-adv-x="1527" 
d="M1430 1049v-222h-533v-827h-266v827h-533v222h1332z" />
    <glyph glyph-name="tbar.sc" horiz-adv-x="1527" 
d="M1430 827h-533v-182h434v-211h-434v-434h-266v434h-436v211h436v182h-533v222h1332v-222z" />
    <glyph glyph-name="tcaron.sc" horiz-adv-x="1527" 
d="M838 1157h-146l-375 389l89 105l358 -269l360 269l88 -105zM1430 1049v-222h-533v-827h-266v827h-533v222h1332z" />
    <glyph glyph-name="uni0163.sc" horiz-adv-x="1527" 
d="M897 0h-88l-23 -94q152 6 225.5 -34t73.5 -132q0 -172 -292 -172q-85 0 -150 9.5t-84 19.5l27 118q65 -24 176 -24q143 0 143 57q0 32 -58.5 44.5t-197.5 6.5l35 201h-53v827h-533v222h1332v-222h-533v-827z" />
    <glyph glyph-name="uni021B.sc" horiz-adv-x="1527" 
d="M98 1049h1332v-222h-533v-827h-266v827h-533v222zM750 -92q137 0 217 -62t80 -172q0 -159 -139 -225.5t-392 -32.5l19 138q192 -32 272 3.5t80 133.5q0 55 -39 86q-7 -109 -141 -109q-64 0 -104 27.5t-40 81.5q0 60 46.5 95.5t140.5 35.5z" />
    <glyph glyph-name="u.sc" horiz-adv-x="1736" 
d="M874 -31q-334 0 -514 148.5t-180 445.5v486h266v-478q0 -196 111.5 -283t316.5 -87q93 0 166.5 19.5t131 62t88 115.5t30.5 173v478h264v-486q0 -298 -175 -446t-505 -148z" />
    <glyph glyph-name="uacute.sc" horiz-adv-x="1736" 
d="M1270 1468l-451 -311l-88 107l408 387zM874 -31q-334 0 -514 148.5t-180 445.5v486h266v-478q0 -196 111.5 -283t316.5 -87q93 0 166.5 19.5t131 62t88 115.5t30.5 173v478h264v-486q0 -298 -175 -446t-505 -148z" />
    <glyph glyph-name="ucircumflex.sc" horiz-adv-x="1736" 
d="M868 1425l-358 -268l-88 107l375 387h145l375 -387l-88 -107zM1290 1049h264v-486q0 -298 -175 -446t-505 -148q-334 0 -514 148.5t-180 445.5v486h266v-478q0 -196 111.5 -283t316.5 -87q93 0 166.5 19.5t131 62t88 115.5t30.5 173v478z" />
    <glyph glyph-name="udieresis.sc" horiz-adv-x="1736" 
d="M596 1233q-78 0 -120 42.5t-42 119.5q0 74 41.5 112.5t120.5 38.5q78 0 122 -38.5t44 -112.5q0 -76 -44.5 -119t-121.5 -43zM1139 1233q-77 0 -119.5 42.5t-42.5 119.5q0 74 42.5 112.5t119.5 38.5q78 0 122 -38.5t44 -112.5q0 -76 -44.5 -119t-121.5 -43zM874 -31
q-334 0 -514 148.5t-180 445.5v486h266v-478q0 -196 111.5 -283t316.5 -87q93 0 166.5 19.5t131 62t88 115.5t30.5 173v478h264v-486q0 -298 -175 -446t-505 -148z" />
    <glyph glyph-name="ugrave.sc" horiz-adv-x="1736" 
d="M498 1468l131 183l407 -387l-88 -107zM874 -31q-334 0 -514 148.5t-180 445.5v486h266v-478q0 -196 111.5 -283t316.5 -87q93 0 166.5 19.5t131 62t88 115.5t30.5 173v478h264v-486q0 -298 -175 -446t-505 -148z" />
    <glyph glyph-name="uhungarumlaut.sc" horiz-adv-x="1736" 
d="M967 1589l-349 -428l-114 70l278 485zM1518 1479l-437 -336l-94 96l383 408zM874 -31q-334 0 -514 148.5t-180 445.5v486h266v-478q0 -196 111.5 -283t316.5 -87q93 0 166.5 19.5t131 62t88 115.5t30.5 173v478h264v-486q0 -298 -175 -446t-505 -148z" />
    <glyph glyph-name="umacron.sc" horiz-adv-x="1736" 
d="M1358 1303h-981v210h981v-210zM874 -31q-334 0 -514 148.5t-180 445.5v486h266v-478q0 -196 111.5 -283t316.5 -87q93 0 166.5 19.5t131 62t88 115.5t30.5 173v478h264v-486q0 -298 -175 -446t-505 -148z" />
    <glyph glyph-name="uogonek.sc" horiz-adv-x="1736" 
d="M1290 1049h264v-486q0 -453 -403 -561q-130 -44 -195 -87.5t-65 -96.5q0 -60 108 -60q91 0 172 27l11 -160q-97 -31 -234 -31q-138 0 -201 44.5t-63 132.5q0 119 141 198q-310 11 -477.5 160t-167.5 434v486h266v-478q0 -196 111.5 -283t316.5 -87q93 0 166.5 19.5
t131 62t88 115.5t30.5 173v478z" />
    <glyph glyph-name="uring.sc" horiz-adv-x="1736" 
d="M868 1176q-212 0 -322 71.5t-110 192.5v14q0 120 110 191t322 71q211 0 318.5 -71t107.5 -191v-14q0 -122 -107.5 -193t-318.5 -71zM868 1337q236 0 236 105v10q0 102 -236 102q-239 0 -239 -102v-10q0 -105 239 -105zM874 -31q-334 0 -514 148.5t-180 445.5v486h266
v-478q0 -196 111.5 -283t316.5 -87q93 0 166.5 19.5t131 62t88 115.5t30.5 173v478h264v-486q0 -298 -175 -446t-505 -148z" />
    <glyph glyph-name="v.sc" horiz-adv-x="1787" 
d="M1407 1051h305l-692 -1055h-281l-663 1055h305l500 -840z" />
    <glyph glyph-name="w.sc" horiz-adv-x="2281" 
d="M1888 1049h301l-434 -1049h-278l-336 752l-346 -752h-275l-428 1049h301l266 -762l336 741h297l324 -741z" />
    <glyph glyph-name="wacute.sc" horiz-adv-x="2281" 
d="M1548 1468l-450 -311l-88 107l407 387zM1888 1049h301l-434 -1049h-278l-336 752l-346 -752h-275l-428 1049h301l266 -762l336 741h297l324 -741z" />
    <glyph glyph-name="wcircumflex.sc" horiz-adv-x="2281" 
d="M1147 1425l-359 -268l-88 107l375 387h146l374 -387l-88 -107zM1888 1049h301l-434 -1049h-278l-336 752l-346 -752h-275l-428 1049h301l266 -762l336 741h297l324 -741z" />
    <glyph glyph-name="wdieresis.sc" horiz-adv-x="2281" 
d="M874 1233q-78 0 -119.5 42.5t-41.5 119.5q0 75 41.5 113t119.5 38t122 -38.5t44 -112.5q0 -76 -44.5 -119t-121.5 -43zM1417 1233q-77 0 -119.5 42.5t-42.5 119.5q0 74 42.5 112.5t119.5 38.5q78 0 122 -38.5t44 -112.5q0 -76 -44.5 -119t-121.5 -43zM1888 1049h301
l-434 -1049h-278l-336 752l-346 -752h-275l-428 1049h301l266 -762l336 741h297l324 -741z" />
    <glyph glyph-name="wgrave.sc" horiz-adv-x="2281" 
d="M1315 1264l-88 -107l-451 311l131 183zM1888 1049h301l-434 -1049h-278l-336 752l-346 -752h-275l-428 1049h301l266 -762l336 741h297l324 -741z" />
    <glyph glyph-name="x.sc" horiz-adv-x="1693" 
d="M1647 0h-355l-456 397l-443 -397h-336l602 528l-600 521h357l446 -398l447 398h336l-603 -527z" />
    <glyph glyph-name="y.sc" horiz-adv-x="1703" 
d="M1667 1049l-680 -695v-354h-264v354l-686 695h332l485 -498l481 498h332z" />
    <glyph glyph-name="yacute.sc" horiz-adv-x="1703" 
d="M1253 1468l-450 -311l-88 107l407 387zM1667 1049l-680 -695v-354h-264v354l-686 695h332l485 -498l481 498h332z" />
    <glyph glyph-name="ycircumflex.sc" horiz-adv-x="1703" 
d="M852 1425l-358 -268l-88 107l374 387h146l374 -387l-88 -107zM1667 1049l-680 -695v-354h-264v354l-686 695h332l485 -498l481 498h332z" />
    <glyph glyph-name="ydieresis.sc" horiz-adv-x="1703" 
d="M580 1233q-78 0 -120 42.5t-42 119.5q0 74 41.5 112.5t120.5 38.5q78 0 121.5 -38.5t43.5 -112.5q0 -76 -44 -119t-121 -43zM1122 1233q-76 0 -118.5 42.5t-42.5 119.5q0 74 42 112.5t119 38.5q78 0 122 -38.5t44 -112.5q0 -76 -44.5 -119t-121.5 -43zM1667 1049
l-680 -695v-354h-264v354l-686 695h332l485 -498l481 498h332z" />
    <glyph glyph-name="ygrave.sc" horiz-adv-x="1703" 
d="M1020 1264l-88 -107l-451 311l131 183zM1667 1049l-680 -695v-354h-264v354l-686 695h332l485 -498l481 498h332z" />
    <glyph glyph-name="z.sc" horiz-adv-x="1585" 
d="M604 225h891v-225h-1323v201l872 630h-917v220h1335v-203z" />
    <glyph glyph-name="zacute.sc" horiz-adv-x="1585" 
d="M1167 1468l-450 -311l-88 107l407 387zM604 225h891v-225h-1323v201l872 630h-917v220h1335v-203z" />
    <glyph glyph-name="zcaron.sc" horiz-adv-x="1585" 
d="M840 1157h-146l-375 389l89 105l358 -269l360 269l88 -105zM604 225h891v-225h-1323v201l872 630h-917v220h1335v-203z" />
    <glyph glyph-name="zdotaccent.sc" horiz-adv-x="1585" 
d="M762 1237q-77 0 -118.5 42t-41.5 120q0 73 41.5 111t118.5 38q79 0 123.5 -38.5t44.5 -110.5q0 -77 -44.5 -119.5t-123.5 -42.5zM604 225h891v-225h-1323v201l872 630h-917v220h1335v-203z" />
    <glyph glyph-name="zero.osf" horiz-adv-x="1765" 
d="M879 -35q-374 0 -566 131.5t-192 413.5v37q0 536 758 536q768 0 768 -536v-37q0 -282 -195.5 -413.5t-572.5 -131.5zM879 207q117 0 206 15.5t156.5 50t103 93.5t35.5 142v41q0 293 -501 293q-492 0 -492 -293v-41q0 -66 23 -117.5t65 -86t104 -56.5t135.5 -31.5
t164.5 -9.5z" />
    <glyph glyph-name="one.osf" horiz-adv-x="944" 
d="M487 1049h213v-1049h-262v797l-315 -142l-92 197z" />
    <glyph glyph-name="two.osf" horiz-adv-x="1656" 
d="M565 215h981v-215h-1370v217l713 252q154 60 218 106t64 119q0 86 -78.5 119t-252.5 33q-194 0 -368 -45t-292 -127l-57 217q256 194 747 194q105 0 187.5 -8.5t159 -31t127 -60t80.5 -98t30 -142.5q0 -50 -10.5 -92.5t-27.5 -77t-47 -64.5t-61 -53t-77.5 -44.5
t-88.5 -37t-102.5 -31.5t-111 -27.5t-121.5 -26.5z" />
    <glyph glyph-name="three.osf" horiz-adv-x="1654" 
d="M1262 420q135 -25 207.5 -102.5t72.5 -208.5q0 -204 -180.5 -307t-521.5 -103q-284 0 -466.5 75t-307.5 236l159 183q107 -138 243.5 -194t373.5 -56q230 0 334 47.5t104 140.5q0 95 -90 134.5t-277 39.5h-393v199h393q316 0 316 176q0 164 -348 164q-216 0 -373.5 -50
t-280.5 -161l-139 186q152 141 341.5 202.5t457.5 61.5q111 0 200.5 -10.5t167.5 -35.5t130.5 -64.5t82 -100t29.5 -139.5q0 -120 -61.5 -201t-173.5 -112z" />
    <glyph glyph-name="four.osf" horiz-adv-x="1652" 
d="M1620 227v-229h-264v-248h-262v248h-1028v213l620 838h336l-619 -822h691v391h262v-391h264z" />
    <glyph glyph-name="five.osf" horiz-adv-x="1619" 
d="M1036 514q246 0 360.5 -82.5t114.5 -253.5q0 -226 -192 -343.5t-551 -117.5q-400 0 -680 154l94 225q109 -68 247.5 -103.5t338.5 -35.5q241 0 360 54.5t119 154.5q0 84 -66.5 113.5t-213.5 29.5h-740v740h1200v-238h-950v-297h559z" />
    <glyph glyph-name="six.osf" horiz-adv-x="1753" 
d="M987 842q332 0 488.5 -99t156.5 -307q0 -471 -723 -471q-395 0 -593.5 162t-198.5 510v90q0 351 204.5 518.5t604.5 167.5q245 0 413.5 -62t292.5 -225l-188 -178q-117 221 -518 221q-128 0 -226 -24t-170 -76t-109.5 -137t-37.5 -203v-70q143 183 604 183zM907 211
q225 0 343 57.5t118 167.5q0 103 -111.5 154t-349.5 51q-217 0 -346 -52.5t-129 -150.5q0 -28 14 -57t49.5 -60t87.5 -55t136 -39.5t188 -15.5z" />
    <glyph glyph-name="seven.osf" horiz-adv-x="1507" 
d="M20 1049h1422v-211l-799 -1114h-358l805 1087h-1070v238z" />
    <glyph glyph-name="eight.osf" horiz-adv-x="1839" 
d="M1391 707q321 -59 321 -338q0 -77 -24.5 -138t-73 -105t-115.5 -75.5t-157.5 -50t-193 -27t-228.5 -8.5q-151 0 -270 12t-219 40.5t-165.5 74.5t-102 115.5t-36.5 161.5q0 278 326 338q-146 32 -214.5 110.5t-68.5 204.5q0 107 51 183.5t150.5 121.5t234 65.5t314.5 20.5
t314 -20.5t234 -65.5t150.5 -121.5t50.5 -183.5q0 -254 -278 -315zM920 1167q-263 0 -374.5 -47t-111.5 -141q0 -64 43 -102.5t151 -59t292 -20.5t291.5 20.5t150.5 59t43 102.5q0 94 -111 141t-374 47zM920 211q192 0 310.5 24t168 67.5t49.5 111.5q0 67 -48 108.5
t-165.5 63.5t-314.5 22q-196 0 -313.5 -22t-166.5 -63.5t-49 -108.5q0 -68 50 -111.5t168.5 -67.5t310.5 -24z" />
    <glyph glyph-name="nine.osf" horiz-adv-x="1730" 
d="M829 1083q394 0 590.5 -163t196.5 -517v-81q0 -338 -204 -498t-601 -160q-178 0 -297 17.5t-231.5 71.5t-210.5 153l157 205q146 -203 568 -203q553 0 553 403q0 68 -2 97q-67 -91 -219.5 -142t-383.5 -51q-326 0 -479 102t-153 318q0 448 716 448zM827 418
q216 0 344.5 53.5t128.5 151.5q0 25 -14 52.5t-49.5 57.5t-87 53.5t-134.5 38.5t-184 15q-220 0 -337 -55.5t-117 -159.5q0 -207 450 -207z" />
    <glyph glyph-name="uni0308.case" 
d="M-758 1135q-78 0 -120 41.5t-42 119.5q0 73 42 112.5t120 39.5q77 0 121.5 -39.5t44.5 -112.5q0 -77 -44.5 -119t-121.5 -42zM-215 1135q-77 0 -119.5 41.5t-42.5 119.5q0 73 42.5 112.5t119.5 39.5t121.5 -39.5t44.5 -112.5q0 -77 -44.5 -119t-121.5 -42z" />
    <glyph glyph-name="uni0307.case" 
d="M-217 1137q-77 0 -118.5 41.5t-41.5 119.5q0 73 41.5 111.5t118.5 38.5q79 0 123.5 -38.5t44.5 -111.5q0 -77 -44.5 -119t-123.5 -42z" />
    <glyph glyph-name="gravecomb.case" 
d="M-547 1368l131 182l408 -387l-88 -106z" />
    <glyph glyph-name="acutecomb.case" 
d="M-20 1368l-451 -311l-88 106l407 387z" />
    <glyph glyph-name="uni030B.case" 
d="M-571 1489l-349 -428l-114 69l278 486zM-20 1378l-437 -336l-94 97l383 407z" />
    <glyph glyph-name="uni0302.case" 
d="M-31 1163l-88 -106l-360 268l-359 -268l-88 106l375 387h145z" />
    <glyph glyph-name="uni030C.case" 
d="M-119 1550l88 -104l-375 -389h-145l-375 389l88 104l359 -268z" />
    <glyph glyph-name="uni0306.case" 
d="M-502 1051q-116 0 -206.5 35t-146 96.5t-84 141.5t-28.5 173h236q0 -103 57.5 -177.5t171.5 -74.5q78 0 130 38.5t72.5 93t20.5 120.5h238q0 -94 -28 -173t-82.5 -141t-144.5 -97t-206 -35z" />
    <glyph glyph-name="uni030A.case" 
d="M-457 1055q-432 0 -432 262v14q0 123 104 192.5t328 69.5q426 0 426 -262v-14q0 -262 -426 -262zM-457 1214q236 0 236 105v10q0 103 -236 103q-239 0 -239 -103v-10q0 -105 239 -105z" />
    <glyph glyph-name="tildecomb.case" 
d="M-922 1069q-13 208 57.5 314t192.5 106q27 0 49.5 -5t45 -17.5t35.5 -22t39.5 -31t39.5 -31.5q10 -9 33.5 -32t34 -32t28.5 -18.5t35 -9.5q43 0 64 56t12 147h211q10 -204 -65 -314t-193 -110q-41 0 -79.5 17t-56.5 31.5t-59 51.5q-8 7 -28.5 27t-28 26t-22.5 17
t-27.5 14.5t-26.5 3.5q-46 0 -67 -49t-15 -139h-209z" />
    <glyph glyph-name="uni0304.case" 
d="M-80 1202h-981v211h981v-211z" />
    <glyph glyph-name="uni0312.case" 
 />
    <glyph glyph-name="uni0326.case" 
d="M-295 -92q137 0 217 -62t80 -172q0 -159 -138.5 -225.5t-391.5 -32.5l18 138q192 -32 272 3.5t80 133.5q0 55 -39 86q-7 -109 -141 -109q-64 0 -103.5 27.5t-39.5 81.5q0 60 46 95.5t140 35.5z" />
    <glyph glyph-name="uni0327.case" 
d="M-322 -86q152 6 225.5 -34t73.5 -132q0 -172 -309 -172q-81 0 -139 9.5t-78 19.5l27 119q68 -25 162 -25q157 0 157 57q0 32 -58.5 44.5t-197.5 6.5l37 220h125z" />
    <glyph glyph-name="uni0328.case" 
d="M-281 -426q-139 0 -201.5 43.5t-62.5 132.5q0 66 41 122t109.5 94.5t150.5 63t170 33.5l54 -63q-147 -33 -232.5 -88t-85.5 -113q0 -63 109 -63q94 0 172 26l10 -159q-121 -29 -234 -29z" />
    <glyph glyph-name="caron.alt" horiz-adv-x="305" 
d="M281 1485l-121 -557l-135 18l34 578z" />
    </font>
</defs>
</svg>
